<?xml version="1.0" standalone="no"?>
<!DOCTYPE svg PUBLIC "-//W3C//DTD SVG 1.1//EN" "http://www.w3.org/Graphics/SVG/1.1/DTD/svg11.dtd" >
<svg xmlns="http://www.w3.org/2000/svg">
<metadata>
Created by FontForge 20120731 at Mon Oct 19 09:57:54 2015
 By Ads
</metadata>
<defs>
<font id="iconfont" horiz-adv-x="1024" >
  <font-face 
    font-family="iconfont"
    font-weight="500"
    font-stretch="normal"
    units-per-em="1024"
    panose-1="2 0 6 3 0 0 0 0 0 0"
    ascent="812"
    descent="-212"
    x-height="792"
    bbox="-123 -212.429 1298 812.69"
    underline-thickness="50"
    underline-position="-100"
    unicode-range="U+0078-E6AF"
  />
<missing-glyph horiz-adv-x="374" 
d="M34 0v682h272v-682h-272zM68 34h204v614h-204v-614z" />
    <glyph glyph-name=".notdef" horiz-adv-x="374" 
d="M34 0v682h272v-682h-272zM68 34h204v614h-204v-614z" />
    <glyph glyph-name=".null" horiz-adv-x="0" 
 />
    <glyph glyph-name="nonmarkingreturn" horiz-adv-x="341" 
 />
    <glyph glyph-name="x" unicode="x" horiz-adv-x="1001" 
d="M281 543q-27 -1 -53 -1h-83q-18 0 -36.5 -6t-32.5 -18.5t-23 -32t-9 -45.5v-76h912v41q0 16 -0.5 30t-0.5 18q0 13 -5 29t-17 29.5t-31.5 22.5t-49.5 9h-133v-97h-438v97zM955 310v-52q0 -23 0.5 -52t0.5 -58t-10.5 -47.5t-26 -30t-33 -16t-31.5 -4.5q-14 -1 -29.5 -0.5
t-29.5 0.5h-32l-45 128h-439l-44 -128h-29h-34q-20 0 -45 1q-25 0 -41 9.5t-25.5 23t-13.5 29.5t-4 30v167h911zM163 247q-12 0 -21 -8.5t-9 -21.5t9 -21.5t21 -8.5q13 0 22 8.5t9 21.5t-9 21.5t-22 8.5zM316 123q-8 -26 -14 -48q-5 -19 -10.5 -37t-7.5 -25t-3 -15t1 -14.5
t9.5 -10.5t21.5 -4h37h67h81h80h64h36q23 0 34 12t2 38q-5 13 -9.5 30.5t-9.5 34.5q-5 19 -11 39h-368zM336 498v228q0 11 2.5 23t10 21.5t20.5 15.5t34 6h188q31 0 51.5 -14.5t20.5 -52.5v-227h-327z" />
    <glyph glyph-name="uniE600" unicode="&#xe600;" horiz-adv-x="1121" 
d="M700 439q117 -104 210 -189q39 -36 77 -71t67.5 -63.5t47.5 -47t18 -21.5v-62q0 -4 -18 1.5t-47.5 17.5t-67.5 28t-77 33q-93 41 -210 95v-193q27 -20 50 -38q21 -15 41 -30t32 -23q13 -9 15 -19t2 -23v-35q0 -8 -17 -10.5t-40 8.5q-11 6 -41 18.5t-63.5 26.5t-64.5 26.5
t-47 18.5q-2 0 -3.5 0.5t-3.5 0.5t-3.5 -0.5t-3.5 -0.5q-15 -6 -46.5 -18.5t-65 -26.5t-63.5 -26.5t-41 -18.5q-23 -11 -40 -8.5t-17 10.5v35q0 13 2 23t15 19q12 8 32.5 23t40.5 30q23 18 50 38v193q-117 -54 -210 -95q-40 -17 -77.5 -33t-67 -28t-47.5 -17.5t-18 -1.5v62
q0 3 18 21.5t47.5 47t67 63.5t77.5 71q93 85 210 189v232q0 35 10 59t25.5 39t33.5 23.5t34 12.5t26 4.5t11 0.5h10q12 -1 27.5 -5t33.5 -12.5t33.5 -23.5t25.5 -39t10 -59v-232z" />
    <glyph glyph-name="uniE601" unicode="&#xe601;" 
d="M825 746q28 0 53 -10.5t43.5 -29t29.5 -43t11 -53.5v-622q0 -29 -11 -53.5t-29.5 -43t-43.5 -29.5t-53 -11h-689q-27 0 -52.5 11t-43.5 29.5t-29 43t-11 53.5v622q0 29 11 53.5t29 43t43.5 29t52.5 10.5h689zM322 250q11 12 23.5 27t25.5 30.5t24 29.5t19 25l353 3v60
h-333l11 28l-61 18v17h126l-3 -60h68l2 60l193 3v64h-193l2 66l-73 2l4 -68h-128l2 63h-69l4 -63h-192v-66l192 -1l-3 -63h-188v-60h203q-39 -46 -76 -84q-32 -34 -67 -67t-62 -48q11 -12 19.5 -26t16.5 -28q27 20 48.5 38t45.5 40v-211l63 -2zM771 300l-319 -2v-64l162 -1
l-53 -33v-30l-177 3v-68l189 -1v-41q0 -2 -7.5 -11.5t-21.5 -9.5h-93l-2 -66q14 -1 32 -1h83q31 0 54 19t23 48v62l129 1v67l-112 -2v14l113 53v63z" />
    <glyph glyph-name="uniE602" unicode="&#xe602;" 
d="M513 781q99 0 187 -37.5t154 -104t103.5 -154.5t37.5 -187q0 -100 -37.5 -188.5t-103.5 -154t-154 -103t-187 -37.5q-100 0 -188 37.5t-154 103t-103.5 154t-37.5 188.5q0 99 37.5 187t103.5 154.5t154 104t188 37.5zM544 -61q28 0 48 19.5t20 48.5q0 30 -20 50t-48 20
q-30 0 -50 -20t-20 -50q0 -29 20 -48.5t50 -19.5zM609 217q0 13 19 31.5t42 46t42.5 63.5t19.5 85q0 33 -12.5 69t-40.5 65.5t-71.5 49t-104.5 19.5q-72 0 -114.5 -25t-64.5 -61t-28.5 -74.5t-6.5 -64.5q0 -25 20.5 -35t44.5 -8.5t44.5 14t20.5 34.5q0 13 1.5 29.5t10 31.5
t26 24.5t48.5 9.5q48 0 76 -26.5t28 -62.5q0 -30 -20 -57.5t-43.5 -50.5t-43.5 -41t-20 -28v-75q0 -9 20 -13.5t43.5 -4t43.5 5.5t20 16v33z" />
    <glyph glyph-name="uniE603" unicode="&#xe603;" 
d="M883 146q33 -21 53 -56.5t20 -77.5q0 -34 -12.5 -62.5t-34 -50t-50.5 -34t-63 -12.5q-42 0 -77 20t-56 53q-4 4 -7 8.5t-8 9.5q-17 22 -21 54.5t-3 67.5t2 69t-5 60q-11 20 -25 44t-31 48q-3 4 -5.5 7t-4.5 6q-20 -23 -38 -46.5t-37 -48.5q-5 -6 -9 -12t-9 -12
q-9 -19 -9 -33.5t3.5 -28t8 -27.5t5 -33t-5 -44.5t-21.5 -60.5q-17 -46 -57.5 -74.5t-92.5 -28.5q-33 0 -62 12.5t-50.5 34.5t-34.5 50.5t-13 62.5q0 36 15.5 67.5t41.5 53.5q25 27 53 44.5t55.5 32.5t52 30.5t43.5 36.5q4 5 7.5 10t7.5 10l1 1q4 8 11 15q14 19 28 38.5
t30 39.5q-27 28 -45.5 45t-35.5 40q-36 47 -60 97.5t-37.5 96t-14 81.5t12.5 53q7 5 20.5 7.5t21.5 -9.5q18 -27 41.5 -62.5t50.5 -76.5t56.5 -85.5t58.5 -87.5q7 8 12.5 16.5t11.5 16.5q27 39 52.5 81t47 80.5t38.5 69.5t26 47q7 11 24 11.5t29 -10.5q6 -6 11 -34.5
t-3 -74.5t-32.5 -105t-77.5 -126l-32 -40q-16 -21 -34 -41q24 -35 44.5 -66.5t37.5 -56.5q26 -27 51.5 -42t49 -25.5t43.5 -19.5t36 -24zM292.5 -62q32.5 0 55 23t22.5 55.5t-22.5 56t-55 23.5t-56 -23.5t-23.5 -56t23.5 -55.5t56 -23zM795 -62q33 0 55.5 22.5t22.5 55
t-22.5 56t-55 23.5t-56 -23.5t-23.5 -55.5q0 -16 6.5 -30.5t17 -25t25 -16.5t30.5 -6z" />
    <glyph glyph-name="uniE604" unicode="&#xe604;" 
d="M889 746q29 0 53 -10.5t41.5 -29t28 -43.5t10.5 -54v-620q0 -29 -10.5 -54t-28 -43.5t-41.5 -29.5t-53 -11h-690q-29 0 -54 11t-43.5 29.5t-29.5 43.5t-11 54v620q0 29 11 54t29.5 43.5t43.5 29t54 10.5h690zM826 490v-125h-190v-163q-1 -25 0 -43.5t8 -30.5t22.5 -18
t43.5 -5h181l3 68h-106q-15 -1 -31 2t-28 9.5t-19.5 16.5t-6.5 24v74h190v255h-258v-64h191zM879 -22q5 15 9 32.5t9 32.5h-78q-51 -1 -84 -1h-57q-24 0 -42 0.5t-37 0.5h-54q-24 0 -41.5 1.5t-31 4t-27.5 7.5v118h125v60h-125v133h129v60h-131v67h129v61h-129v66h-66v-66
h-128v-61h128v-67h-191v-60h195v-291q-11 9 -19.5 17.5t-16.5 19.5t-15.5 25t-17.5 33q1 5 2 23t2 38t1.5 37.5t0.5 22.5l-63 3q0 -75 -5 -121t-14 -74t-21.5 -44t-28.5 -29q2 -5 8.5 -16.5t14.5 -19.5q15 -13 21 -19q13 22 24.5 35.5t22 25.5t17.5 24.5t9 29.5
q16 -34 43 -55.5t63 -33t82 -15.5t99 -1q24 -1 49 -2t57 -1.5t76 -0.5h107z" />
    <glyph glyph-name="uniE605" unicode="&#xe605;" 
d="M967 245q0 -43 -20.5 -58.5t-65.5 -15.5h-65q-44 0 -93.5 -0.5t-96.5 -0.5h-75q-39 0 -62 -7.5t-22 -35.5q0 -21 -1 -49t-1 -49q0 -36 -19.5 -46t-50.5 14q-30 24 -72 57.5t-85.5 68.5t-86 68.5t-75.5 59.5q-31 24 -31.5 46t28.5 46q28 25 68 57t83 66.5t84.5 68
t74.5 60.5q36 29 59 22t23 -44v-25q0 -15 1 -30v-30q1 -15 1 -26q1 -26 16.5 -32.5t41.5 -6.5q30 0 78 0.5t100.5 0.5t101.5 0.5t80 0.5q13 0 27.5 -2t26 -10t19.5 -21.5t8 -36.5q0 -27 0.5 -53t0.5 -57z" />
    <glyph glyph-name="uniE606" unicode="&#xe606;" 
d="M470 -165q-44 0 -59.5 20.5t-15.5 65.5q0 21 -0.5 65t-1 93.5t-1.5 96.5t-1 75q0 40 -7.5 62.5t-35.5 21.5q-20 0 -48.5 1t-49.5 0q-36 0 -45.5 19.5t13.5 49.5q25 31 57.5 73t67.5 86t68 87t59 76q24 30 46 31t46 -27q25 -30 57 -69.5t67 -82t68.5 -84t60.5 -73.5
q30 -36 23 -59t-43 -23q-12 0 -25.5 -0.5t-29 -1t-30.5 -1t-27 -0.5q-26 -1 -32.5 -16.5t-5.5 -42.5q0 -29 0.5 -77t1 -100.5t1.5 -101.5t1 -80q0 -13 -2 -27.5t-9.5 -26t-21.5 -20t-36 -8.5q-28 0 -53 -0.5t-57 -1.5z" />
    <glyph glyph-name="uniE607" unicode="&#xe607;" 
d="M47 358q0 43 21 58t66 15q21 0 65 -0.5t93.5 -0.5t96.5 -0.5t75 -0.5q39 -1 61.5 6.5t22.5 35.5q0 20 1.5 48.5t1.5 48.5q1 36 20.5 46t49.5 -15t71 -58.5t85 -69t86 -69.5t75 -60q30 -25 30.5 -47t-28.5 -45q-30 -25 -70.5 -56.5t-84 -65.5t-85.5 -67t-74 -59
q-36 -29 -59 -21.5t-22 44.5v24v30q0 15 -0.5 30t-0.5 27q0 26 -15.5 32.5t-42.5 6.5q-29 0 -77.5 0.5t-100.5 0.5t-101 0.5t-80 0.5q-13 0 -27.5 2.5t-26.5 10t-19 21t-7 37.5q0 27 -0.5 53t0.5 57z" />
    <glyph glyph-name="uniE608" unicode="&#xe608;" 
d="M335 469q22 29 49 50q23 19 50.5 34t57.5 13q43 -3 71.5 -20.5t45.5 -43t23 -58t4 -66.5t-13.5 -64.5t-27 -58t-34 -50t-37.5 -40.5q-27 -29 -58 -55t-58.5 -46t-49.5 -32t-32 -12q-13 0 -33 12.5t-44.5 32.5t-52 46t-55.5 53q-17 17 -38.5 39t-40.5 48t-32.5 57.5
t-14.5 67.5q-2 35 7.5 66t27.5 55.5t44 41.5t58.5 24t65 -6.5t58.5 -33.5q31 -22 59 -54zM611 566q14 0 26 -1q11 -1 23.5 -3t21.5 -6t19.5 -10.5t19.5 -13.5l20 -16q7 6 14 11q13 11 36 24q12 7 28.5 10.5t33 2.5t33 -6.5t27.5 -17.5q32 -34 38 -66.5t-1.5 -60.5t-23 -49.5
t-27.5 -33.5q-23 -24 -44 -41.5t-52 -39.5q-17 -11 -34.5 -19.5t-27.5 -8.5q-9 -1 -19.5 8t-26.5 20q-7 5 -13 12l-12 11l-13 13q12 20 19 46q6 21 9 50.5t-3 62.5q-7 32 -19 55.5t-23 38.5q-13 17 -29 28z" />
    <glyph glyph-name="uniE609" unicode="&#xe609;" 
d="M388 403q-1 1 -7 9.5t-13 19.5t-14.5 20.5t-11.5 14.5q-7 10 -3 14t10 -2q4 -3 11.5 -9t16 -12t16 -12t11.5 -10q15 -13 21 -7q3 3 8 7t11 6q10 5 12 23q0 2 5 26t10 58t12 73.5t12 74.5t9.5 61t5.5 32q2 18 8 19t9 -19q1 -7 4.5 -32.5t9 -60.5t11.5 -74t11 -73
t8.5 -56.5t4.5 -26.5q2 -6 3 -12.5t6 -8.5q10 -4 18 -11q12 -6 19 0q2 1 10.5 8t19 15t20.5 15t14 10q8 6 11 5t0 -5q-1 -3 -8.5 -12.5t-16.5 -20.5t-16 -22l-9 -14q-9 -12 -3 -18q3 -3 5.5 -7t5.5 -10q6 -13 31 -17q5 -1 28.5 -4t57.5 -8t73 -10.5t73 -11.5t58 -9.5
t28 -3.5q12 -2 10.5 -9t-10.5 -8q-3 -1 -28.5 -4.5t-61.5 -9.5t-77 -12.5t-77.5 -12t-60.5 -9.5t-25 -4q-6 -1 -10.5 -2.5t-7.5 -6.5l-6 -12q-4 -9 -7 -11q-2 -3 -3.5 -6.5t3.5 -10.5q3 -4 9.5 -12.5t15 -19.5t16 -20t9.5 -12q5 -8 1.5 -9t-9.5 4q-4 2 -14 8.5t-20.5 14.5
t-20 14.5t-12.5 8.5q-8 9 -14 3q-3 -3 -7.5 -4.5t-8.5 -4.5q-3 -2 -6.5 -6t-5.5 -13q0 -2 -3.5 -28t-9 -62.5t-12.5 -79t-12 -80.5t-9.5 -64.5t-4.5 -31.5q-2 -18 -7 -15t-7 17q-1 5 -4.5 31t-9.5 64.5t-13.5 81t-13.5 79.5t-10.5 62.5t-4.5 28.5q-1 14 -9 18q-10 4 -15 8
q-5 2 -11.5 1.5t-8.5 -2.5q-1 -1 -11 -8.5t-21.5 -15.5t-22 -16t-13.5 -9q-3 -3 -9 -4t0 7q3 4 12 15.5t18 24t16.5 23t10.5 13.5q4 5 -0.5 12.5t-8.5 14.5t-11 8t-14 3q-2 1 -26 4.5t-58.5 9t-73.5 12t-74.5 11.5t-61 9.5t-30.5 5.5q-17 2 -21.5 9t21.5 10q9 1 36.5 5.5
t63.5 10t76.5 11.5t74 11t56.5 8.5t24 3.5q5 1 8.5 1.5t6.5 4.5q2 5 4.5 9t4.5 8q6 8 0 14z" />
    <glyph glyph-name="uniE60A" unicode="&#xe60a;" 
d="M1024 63q0 -25 -8.5 -47.5t-24 -41t-36.5 -30.5t-46 -16v-2h-21h-1h-665q-2 0 -2.5 -0.5t-2.5 -0.5t-3 0.5t-3 0.5h-6v1q-43 2 -80.5 19.5t-65 46.5t-43.5 67.5t-16 81.5t16 81t43 66.5t63.5 47t78.5 21.5q7 67 36.5 125t76 101t107 67.5t129.5 24.5q73 0 137.5 -27.5
t112 -76t75 -112.5t27.5 -136q0 -33 -6 -64.5t-17 -59.5q2 0 4.5 0.5t4.5 0.5q28 0 53 -11t43 -29.5t29 -43.5t11 -54zM687 215q12 20 7 23.5t-25 3.5q-13 0 -35 0.5t-33 0.5q-16 0 -21 13t-5 37q0 33 -0.5 53t-0.5 43q0 27 -3.5 39t-28.5 12q-19 0 -28 -0.5t-26 -0.5
q-27 0 -34 -15.5t-7 -31.5v-33q0 -13 1 -25t1 -26v-30q0 -16 -4.5 -24.5t-19.5 -8.5q-6 -1 -17 -1l-22 -2h-21h-17q-21 0 -25.5 -13.5t13.5 -33.5q17 -22 37 -47t39.5 -50.5t37.5 -49.5t33 -42q28 -31 54 1q15 18 35.5 45.5t42 57.5t41 58.5t31.5 46.5z" />
    <glyph glyph-name="uniE60B" unicode="&#xe60b;" 
d="M513 746q93 0 174.5 -35t142 -95.5t96 -142.5t35.5 -174q0 -93 -35.5 -174.5t-96 -142.5t-142 -96.5t-174.5 -35.5t-174.5 35.5t-142.5 96.5t-96 142.5t-35 174.5q0 92 35 174t96 142.5t142.5 95.5t174.5 35zM274 438q0 -36 20 -60.5t49 -24.5q30 0 50 24.5t20 60.5
q0 35 -20 59.5t-50 24.5q-29 0 -49 -24.5t-20 -59.5zM639 106h-256v-63h256v63zM675 355q30 0 50.5 24.5t20.5 59.5q0 36 -20.5 60.5t-50.5 24.5t-50.5 -24.5t-20.5 -60.5q0 -35 20.5 -59.5t50.5 -24.5z" />
    <glyph glyph-name="uniE60C" unicode="&#xe60c;" 
d="M513 750q92 0 174 -35.5t142.5 -96.5t96 -142.5t35.5 -174.5q0 -92 -35.5 -174t-96 -142.5t-142.5 -95.5t-174 -35q-93 0 -174.5 35t-142.5 95.5t-96 142.5t-35 174q0 93 35 174.5t96 142.5t142.5 96.5t174.5 35.5zM766 173q1 3 1 8t-1.5 11t-6 11t-13.5 8
q-23 -29 -58 -51q-30 -20 -75.5 -35.5t-106.5 -15.5t-104.5 15.5t-72.5 35.5q-34 22 -58 51q-15 -3 -18 -17.5t-1 -20.5q1 -1 1 -2q9 -28 32.5 -52t57.5 -42t76.5 -27.5t89.5 -9.5q93 0 160.5 33.5t92.5 89.5q0 1 1 3t3 7zM660.5 302q31.5 0 70 19t73.5 42q40 27 81 63
l-18 70h-681l-26 -74q36 -32 70 -57q30 -22 64 -39.5t60.5 -17.5t45 10t35 21t34 21t42.5 10t39.5 -11t28.5 -23t32 -23t49.5 -11z" />
    <glyph glyph-name="uniE60D" unicode="&#xe60d;" 
d="M967 738q25 -58 33 -110q4 -23 4 -46.5t-6 -45t-19 -40.5t-36 -31q-2 -2 -5 -2.5t-5 -2.5q14 -37 21.5 -77t7.5 -82q0 -93 -35.5 -174.5t-96 -142.5t-142.5 -96t-174 -35q-93 0 -174.5 35t-142.5 96t-96 142.5t-35 174.5q0 82 28 157l-7 4l-7 3q-24 12 -36.5 31t-19 40.5
t-6 45t4.5 46.5q8 52 33 110q12 -35 26 -68q12 -29 29.5 -58.5t38.5 -49.5q61 86 155.5 136.5t208.5 50.5q55 0 107.5 -13.5t98.5 -37.5t85.5 -58t70.5 -76q20 21 36.5 50t28.5 57q14 32 26 67zM249 538q13 -43 29 -79q13 -31 29.5 -60t33.5 -38t36.5 -1t36.5 21
q18 15 38 39zM767 173q1 2 1 7t-1.5 11.5t-6 11.5t-12.5 8q-24 -29 -59 -51q-30 -20 -75.5 -35.5t-106.5 -15.5t-104.5 15.5t-72.5 35.5q-34 22 -58 51q-8 -2 -12 -7t-6 -11.5t-2 -11.5t1 -8q1 -1 1 -3q9 -28 32.5 -52t57.5 -42t76.5 -27.5t89.5 -9.5q93 0 160.5 33.5
t92.5 89.5q0 2 1 4t3 7zM682 361q17 9 33.5 38t29.5 60q16 36 29 79l-203 -118q20 -24 38 -39q17 -13 36.5 -21t36.5 1z" />
    <glyph glyph-name="uniE60E" unicode="&#xe60e;" 
d="M512 749q93 0 174.5 -35.5t142.5 -96t96.5 -142.5t35.5 -174q0 -93 -35.5 -174.5t-96.5 -142.5t-142.5 -96t-174.5 -35q-92 0 -174 35t-142.5 96t-95.5 142.5t-35 174.5q0 92 35 174t95.5 142.5t142.5 96t174 35.5zM446 494h-192v-65h192v65zM639 366h-65v-128h65v128z
M767 366h-65v-128h65v128zM767 494h-193v-65h193v65zM895 238v256h-65v-256h65z" />
    <glyph glyph-name="uniE60F" unicode="&#xe60f;" 
d="M968 737q25 -58 33 -110q4 -23 4 -46t-6 -44.5t-19 -40.5t-36 -31q-2 -2 -5 -3t-5 -3q14 -37 21.5 -76.5t7.5 -82.5q0 -92 -35.5 -174t-96.5 -142.5t-142.5 -95.5t-174.5 -35q-92 0 -174 35t-142.5 95.5t-95.5 142.5t-35 174q0 42 7 81.5t21 76.5q-7 3 -14 7
q-24 12 -36.5 31t-19 40.5t-6 44.5t4.5 46q8 52 33 110q12 -36 26 -68q12 -29 29.5 -58t38.5 -49q61 85 155.5 136t207.5 51t207 -50.5t156 -134.5q20 20 36.5 49.5t28.5 57.5q14 32 26 66zM250 538q13 -44 29 -80q13 -31 29.5 -59.5t33.5 -38t36.5 -1t36.5 21.5
q18 15 38 38zM752 0q8 3 12.5 8t6 11.5t1.5 11.5t-1 8q-2 5 -3 7t-1 4q-25 56 -93 91t-162 35q-47 0 -89.5 -10t-76.5 -28t-58 -43t-33 -54q0 -1 -1 -2q-2 -6 1 -21t18 -18q24 29 58 52q29 21 73.5 37t105.5 16t107 -16t75 -37q35 -23 60 -52zM683 360.5q17 9.5 33.5 38
t29.5 59.5q16 36 29 80l-203 -119q20 -23 38 -38q17 -13 36.5 -21.5t36.5 1z" />
    <glyph glyph-name="uniE610" unicode="&#xe610;" 
d="M512 749q93 0 174.5 -35.5t142.5 -96t96.5 -142.5t35.5 -174q0 -93 -35.5 -174.5t-96.5 -142.5t-142.5 -96t-174.5 -35q-92 0 -174 35t-142.5 96t-95.5 142.5t-35 174.5q0 92 35 174t95.5 142.5t142.5 96t174 35.5zM671 559q-35 0 -59 -28.5t-24 -69.5q0 -42 24 -71
t59 -29t59 29t24 71q0 41 -24 69.5t-59 28.5zM254 366h192v63h-192v-63zM766 173q1 2 1 7t-1.5 11.5t-6 11.5t-13.5 8q-23 -29 -58 -51q-30 -20 -75.5 -35.5t-107 -15.5t-104.5 15.5t-72 35.5q-34 22 -58 51q-8 -2 -12 -7t-6 -11.5t-2 -11.5t1 -8q1 -1 0.5 -1.5t0.5 -1.5
q9 -28 32.5 -52t57.5 -42t76.5 -27.5t89.5 -9.5q93 0 160.5 33.5t92.5 89.5q0 2 1 4t3 7z" />
    <glyph glyph-name="uniE611" unicode="&#xe611;" 
d="M512 749q93 0 174.5 -35.5t142.5 -96t96.5 -142.5t35.5 -174q0 -93 -35.5 -174.5t-96.5 -142.5t-142.5 -96t-174.5 -35q-92 0 -174 35t-142.5 96t-95.5 142.5t-35 174.5q0 92 35 174t95.5 142.5t142.5 96t174 35.5zM248 538q13 -43 28 -79q14 -31 30.5 -60t33.5 -38
t36.5 -1t36.5 21q18 15 38 39zM750 0q8 3 12.5 8t6 11.5t1.5 12t-1 7.5q-2 8 -5 11q-12 29 -35.5 52t-56.5 40t-74 26t-88 9t-89.5 -10t-76.5 -28.5t-58 -43t-33 -53.5q-1 -1 -1 -3q-2 -6 1 -20.5t18 -18.5q24 30 58 53q29 21 73 37t105.5 16t107 -16t75.5 -37
q35 -23 60 -53zM681 361q17 9 33.5 38t29.5 60q16 36 29 79l-203 -118q20 -24 38 -39q17 -13 36.5 -21t36.5 1z" />
    <glyph glyph-name="uniE612" unicode="&#xe612;" 
d="M512 749q93 0 174.5 -35.5t142.5 -96t96.5 -142.5t35.5 -174q0 -93 -35.5 -174.5t-96.5 -142.5t-142.5 -96t-174.5 -35q-92 0 -174 35t-142.5 96t-95.5 142.5t-35 174.5q0 92 35 174t95.5 142.5t142.5 96t174 35.5zM340 361q17 -9 36.5 -1t36.5 21q18 15 38 39l-203 118
q13 -43 28 -79q14 -31 30.5 -60t33.5 -38zM510 -29q28 0 52 11t42.5 29t28.5 42.5t10 52t-10 51.5t-28.5 42t-42.5 29t-52 11t-52 -11t-42 -29t-28.5 -42t-10.5 -51.5t10.5 -52t28.5 -42.5t42 -29t52 -11zM681 361q17 9 33.5 38t29.5 60q16 36 29 79l-203 -118
q20 -24 38 -39q17 -13 36.5 -21t36.5 1z" />
    <glyph glyph-name="uniE613" unicode="&#xe613;" 
d="M511 750q93 0 174.5 -35.5t142.5 -96t96 -142.5t35 -174q0 -93 -35 -174.5t-96 -142.5t-142.5 -96t-174.5 -35q-92 0 -174 35t-142.5 96t-96 142.5t-35.5 174.5q0 92 35.5 174t96 142.5t142.5 96t174 35.5zM253 430h68q3 -29 10.5 -47t17.5 -18t18 18t11 47h67v65h-192
v-65zM701 110h-384v-64h384v64zM766 495h-193v-65h68q3 -29 10.5 -47t18 -18t18 18t10.5 47h68v65z" />
    <glyph glyph-name="uniE614" unicode="&#xe614;" 
d="M511 747q93 0 174.5 -35t142.5 -95.5t96 -142.5t35 -174q0 -93 -35 -174.5t-96 -142.5t-142.5 -96.5t-174.5 -35.5q-92 0 -174 35.5t-142.5 96.5t-96 142.5t-35.5 174.5q0 92 35.5 174t96 142.5t142.5 95.5t174 35zM349 361q42 0 71.5 29t29.5 71t-29.5 70.5t-71.5 28.5
q-20 0 -38 -7.5t-32 -21t-21.5 -32t-7.5 -39t7.5 -39t21.5 -31.5t32 -21t38 -8zM670 361q42 0 71 29t29 71t-29 70.5t-71 28.5q-21 0 -39 -7.5t-31.5 -21t-21.5 -32t-8 -39t8 -39t21.5 -31.5t31.5 -21t39 -8zM350 507q20 0 33 -13.5t13 -33t-13 -33t-33 -13.5t-33.5 13.5
t-13.5 33t13.5 33t33.5 13.5zM671 512q20 0 35.5 -15t15.5 -36.5t-15.5 -36t-35.5 -14.5q-22 0 -37.5 14.5t-15.5 36t15.5 36.5t37.5 15z" />
    <glyph glyph-name="uniE615" unicode="&#xe615;" 
d="M511 747q93 0 174.5 -35t142.5 -95.5t96 -142.5t35 -174q0 -93 -35 -174.5t-96 -142.5t-142.5 -96.5t-174.5 -35.5q-92 0 -174 35.5t-142.5 96.5t-96 142.5t-35.5 174.5q0 92 35.5 174t96 142.5t142.5 95.5t174 35zM394 461l91 90l-46 46l-90 -91l-91 91l-45 -46l91 -90
l-91 -91l45 -45l91 90l90 -90l46 45zM715 461l91 90l-46 46l-90 -91l-91 91l-45 -46l91 -90l-91 -91l45 -45l91 90l90 -90l46 45z" />
    <glyph glyph-name="uniE616" unicode="&#xe616;" horiz-adv-x="1029" 
d="M1001 317q22 -20 23 -44.5t-16 -41.5q-20 -17 -45.5 -16t-40.5 14q-6 4 -32 29t-62 59t-77.5 73.5t-78.5 74.5t-63.5 60.5t-34.5 31.5q-32 30 -64 29t-63 -29q-10 -9 -38 -35t-65 -61t-78 -73t-75.5 -70.5t-60 -55.5t-30.5 -28q-15 -12 -40.5 -13t-44.5 16q-20 18 -19 44
t17 42q6 6 38 35.5t76 70.5t94.5 88t94 88t75 70t36.5 35q39 37 84 38t77 -30q6 -5 25.5 -24t47.5 -46t63 -61t70.5 -68.5t70 -68t63 -61t48.5 -46.5zM447 466q26 23 62 25t64 -25q3 -3 19 -18l39 -35q22 -22 50.5 -48.5t57.5 -53.5q69 -63 154 -142v-195q0 -22 -17 -39.5
t-46 -18.5h-193v159q0 34 -32 34h-195q-18 0 -24.5 -10.5t-6.5 -23.5q0 -6 -0.5 -31.5t-0.5 -53.5v-74h-188q-29 0 -46.5 13.5t-17.5 37.5v204q84 77 152 139q29 27 57.5 53t52.5 47.5t39.5 36.5t19.5 19z" />
    <glyph glyph-name="uniE617" unicode="&#xe617;" 
d="M930 -16q28 -33 31 -57.5t-19 -48.5q-24 -28 -54 -26t-58 24l-172 166q-46 -30 -98.5 -46.5t-110.5 -16.5q-80 0 -150 30.5t-122 82.5t-82 122t-30 149.5t30 149.5t82 122t122 82t149.5 30t149.5 -30t122 -82t82.5 -122t30.5 -150q0 -60 -17.5 -114t-49.5 -101l34 -33
q24 -25 51.5 -51.5t50 -50t28.5 -29.5zM452.5 107q53.5 0 100.5 20t82 55t55 82t20 100.5t-20 100.5t-55 82t-82 55t-100.5 20t-100.5 -20t-81.5 -55t-54.5 -82t-20 -100.5t20 -100.5t54.5 -82t81.5 -55t100.5 -20z" />
    <glyph glyph-name="uniE618" unicode="&#xe618;" 
d="M949 614q7 -8 8 -18.5t1 -16.5v-550q0 -48 -32.5 -81t-86.5 -33h-592q-56 0 -88 27.5t-32 84.5v599q0 55 32 88t88 33h543q10 0 20 -2.5t14 -6.5zM768 651q-2 32 -34 32h-446q-16 1 -25 -8t-9 -22v-167q0 -10 4.5 -20.5t13 -19.5t19 -14.5t22.5 -5.5h389q28 0 47 16.5
t19 48.5v160zM768 190q0 44 -45 45h-423q-24 0 -35 -12t-11 -33v-149h514v149z" />
    <glyph glyph-name="uniE619" unicode="&#xe619;" 
d="M508 752q93 1 175 -34t144 -95t98 -141.5t37 -174.5q1 -88 -30.5 -166t-87.5 -137.5t-131 -98.5t-162 -48q-23 -3 -48.5 -5.5t-56.5 -3.5t-69.5 0t-86.5 7q-107 10 -158.5 26.5t-41.5 18.5q54 9 93 29q21 12 17.5 33t-20.5 39q-52 57 -84.5 133.5t-34.5 164.5
q-1 93 34 175t95.5 143.5t142.5 97.5t175 37zM708 301q0 -27 18 -45.5t45 -18.5t46 18.5t19 45.5t-19 45.5t-46 18.5t-45 -18.5t-18 -45.5zM451 301q0 -27 19 -46.5t46 -19.5q28 0 47 19.5t19 46.5q0 28 -19 47t-47 19q-27 0 -46 -19t-19 -47zM197 302q0 -27 18.5 -46
t45.5 -19q28 0 47 19t19 46t-19 46t-47 19q-27 0 -45.5 -19t-18.5 -46z" />
    <glyph glyph-name="uniE61A" unicode="&#xe61a;" 
d="M512 747q92 0 174 -35t142.5 -95.5t95.5 -142.5t35 -174q0 -93 -35 -174.5t-95.5 -142.5t-142.5 -95.5t-174 -34.5q-93 0 -174.5 34.5t-142.5 95.5t-96.5 142.5t-35.5 174.5q0 92 35.5 174t96.5 142.5t142.5 95.5t174.5 35zM673.5 525q-29.5 0 -50 -24.5t-20.5 -59.5
q0 -36 20.5 -60.5t50 -24.5t50 24.5t20.5 60.5q0 35 -20.5 59.5t-50 24.5zM342 523q-29 0 -49 -24.5t-20 -59.5q0 -36 20 -60t49 -24t49.5 24t20.5 60q0 35 -20.5 59.5t-49.5 24.5zM516 -33q54 0 103 19.5t87.5 53.5t66 79t38.5 96v5q0 8 -6 15t-15 7h-548q-10 0 -17.5 -7
t-5.5 -15q2 -10 3 -14t2 -6q14 -50 41.5 -92t65 -73.5t84.5 -49.5t101 -18z" />
    <glyph glyph-name="uniE61B" unicode="&#xe61b;" 
d="M81 521q-11 8 -13.5 13t-2.5 14v18q0 24 12.5 38.5t42.5 14.5l785 -1q32 0 44.5 -13t12.5 -37v-20q0 -9 -2.5 -12.5t-14.5 -14.5l-389 -224q-9 -5 -23.5 -12t-19.5 -7q-11 0 -42 20l-16 10q-18 9 -45.5 24.5t-62.5 35.5t-72 42q-86 49 -194 111zM924 443q17 12 27.5 10
t10.5 -17v-357q0 -35 -8 -55t-21.5 -30t-32 -13t-40.5 -3h-684q-35 0 -56.5 9.5t-33.5 24t-17.5 33t-5.5 38.5v344q0 19 10 24.5t24 -5.5q6 -4 31.5 -19.5t54.5 -33.5t53.5 -33.5t29.5 -18.5q13 -8 12.5 -17t-6.5 -18q-4 -7 -11.5 -23.5t-16 -34t-16.5 -33t-12 -23
t-2.5 -12.5t5 -7.5t9 -1.5t11.5 7q3 3 14.5 17t26 30t27 30t17.5 18q5 5 15 11.5t19 0.5q7 -3 21 -12.5t31 -19.5l32 -23q17 -10 29 -17q12 -8 25 -10t24 -0.5t21 4.5t15 6t21.5 12.5t35.5 21.5t36 22.5t23 14.5q10 6 18 4t17 -11q3 -3 14.5 -16.5t25.5 -30.5t25.5 -32.5
t17 -21.5t11.5 -6.5t10.5 3t6 9.5t-2.5 14q-2 3 -8 18l-13 33q-8 18 -15 35t-11 24q-8 17 -8.5 25t10.5 15q2 1 23 15t47 30.5t50 31.5t34 20z" />
    <glyph glyph-name="uniE61C" unicode="&#xe61c;" 
d="M895 238q0 -79 -29.5 -149t-81.5 -123.5t-122 -88t-151 -41.5q-5 -1 -9 -1.5t-9 -0.5h-178q-17 0 -34 6t-30 17t-22 25.5t-9 29.5t8.5 29.5t21.5 24.5t29.5 16.5t33.5 6.5l159 -1q54 0 102.5 20t84 53.5t56 79t20.5 98.5q0 49 -18.5 92t-50.5 76.5t-75 54.5t-93 26
q-2 0 -2.5 -0.5t-2.5 -0.5h-163v-81q0 -17 -14 -25t-45 10q-8 5 -26 18t-42 30.5t-50 36.5l-52 39q-15 12 -26.5 22t-11.5 24q0 12 13 25.5t29 26.5q19 16 44.5 36.5t50.5 40t45 35t28 21.5q25 18 40.5 7.5t16.5 -30.5v-82h163q5 0 10.5 -1t10.5 -2q80 -8 149.5 -42
t121.5 -87.5t81 -123.5t29 -147z" />
    <glyph glyph-name="uniE61D" unicode="&#xe61d;" 
d="M109 240q0 77 29 147t80.5 123.5t121.5 87.5t149 42q11 3 22 3h163v82q1 20 16.5 30.5t39.5 -6.5q7 -6 27.5 -21.5t45.5 -35.5t51 -40.5t44 -36.5q16 -13 28.5 -26.5t12.5 -25.5q0 -14 -10.5 -24t-26.5 -22l-51 -39q-27 -19 -51 -36.5t-42.5 -30.5t-26.5 -17
q-15 -9 -26 -11.5t-17.5 0.5t-10 10t-3.5 16v81h-163h-5q-50 -5 -93 -26t-75.5 -54.5t-51 -76.5t-18.5 -92q0 -53 20.5 -98.5t56.5 -79t84 -53.5t102 -20l159 1q17 0 33.5 -6.5t29.5 -16.5t21 -24t8 -30q0 -15 -8 -29.5t-22 -25t-30.5 -16.5t-33.5 -6h-177h-9q-4 0 -9 1
q-81 7 -151.5 41.5t-122 88t-81 123.5t-29.5 149z" />
    <glyph glyph-name="uniE61E" unicode="&#xe61e;" 
d="M926 347q0 -16 -7 -31t-17.5 -26.5t-26 -18t-31.5 -6.5h-30q34 0 58 -22.5t24 -55t-24 -56.5t-58 -24h-31q35 0 59 -23.5t24 -55.5q0 -17 -9 -31.5t-25 -25.5t-36.5 -17t-41.5 -6q33 0 54 -24t21 -57q0 -21 -11.5 -35.5t-29.5 -24.5t-38.5 -14.5t-36.5 -4.5h-183h-246
q-33 0 -61 11t-49 30.5t-33 47.5t-12 63v313q0 20 1.5 40.5t7.5 38.5t19 33t34 24q21 8 47 24.5t54.5 39t55 50.5t48 59.5t34 65t12.5 68.5q1 31 8.5 51.5t19 33.5t25.5 18.5t28 5.5q37 0 62 -22.5t36 -73.5q2 -44 -6 -94q-6 -42 -21 -92t-47 -99h297q34 0 58 -22t24 -55z
" />
    <glyph glyph-name="uniE61F" unicode="&#xe61f;" 
d="M908 218q0 -31 -22.5 -51t-54.5 -20h-279q30 -47 45 -94.5t20 -86.5q6 -46 5 -87q-10 -48 -33.5 -69.5t-58.5 -21.5q-13 0 -26.5 5.5t-24 17.5t-17.5 31.5t-8 48.5q0 32 -12.5 64t-32.5 61t-45 55.5t-51 47.5t-51 36.5t-44 22.5q-21 9 -32.5 23t-17.5 31.5t-7.5 36.5
t-1.5 38v295q0 33 11.5 58.5t31 44.5t46 29t57.5 10h232h170q16 0 35.5 -4.5t36 -13.5t28 -23.5t11.5 -32.5q0 -32 -20 -54t-52 -22q21 0 40 -6t34 -16t23.5 -23.5t8.5 -29.5q0 -32 -22.5 -54t-54.5 -22h28q32 0 55 -21t23 -53t-23 -52.5t-55 -20.5h28q16 0 30.5 -6.5
t24.5 -17t16 -24.5t6 -30z" />
    <glyph glyph-name="uniE620" unicode="&#xe620;" 
d="M861 619q31 0 51 -10t31.5 -25.5t16.5 -33.5t5 -33q0 -7 -0.5 -11t-0.5 -7v-6h-68v-538q0 -21 -8 -39.5t-23.5 -33t-37.5 -23.5t-51 -9h-457q-26 0 -49.5 8.5t-40.5 23.5t-26.5 36t-9.5 47v528h-64q-1 1 -1 5q-1 5 -1 31q0 14 6 30t18.5 30t32 23.5t45.5 9.5h92v62
q0 27 18 46t45 19h321q35 0 49 -19t14 -46v-63q22 -2 46 -2h47zM384 619h321v65h-321v-65zM352 -29q33 0 33 42v475h-63v-475q0 -21 6.5 -31.5t23.5 -10.5zM546 -28q17 0 23 10t6 31v475h-63v-475q0 -41 34 -41zM738 -26q19 0 25 10t6 31v473h-64v-473q0 -41 33 -41z" />
    <glyph glyph-name="uniE621" unicode="&#xe621;" 
d="M512 758q95 0 178.5 -36.5t145.5 -98.5t98.5 -146t36.5 -179t-36.5 -178.5t-98.5 -145.5t-145.5 -98.5t-178.5 -36.5t-179 36.5t-146 98.5t-98.5 145.5t-36.5 178.5t36.5 179t98.5 146t146 98.5t179 36.5zM567 361q0 25 -15.5 42t-39.5 17t-40 -17t-16 -42v-343
q0 -24 16 -39t40 -15t40 15.5t16 39.5zM512 488q30 0 51 21t21 51t-21 51t-51 21t-51.5 -21t-21.5 -51t21.5 -51t51.5 -21z" />
    <glyph glyph-name="uniE622" unicode="&#xe622;" 
d="M781 196q18 -81 31 -146q6 -27 11 -54.5t9.5 -50t7.5 -38.5t4 -20q3 -20 -9 -27t-27 -7q-5 0 -15 3.5t-15 5.5l-266 155q-72 -42 -132 -76q-25 -14 -50 -28.5t-45.5 -26.5t-35 -20.5t-20.5 -10.5q-10 -5 -20.5 -3.5t-19.5 8t-13 15t-2 17.5q1 4 5.5 20t9.5 38t11.5 48.5
t13.5 53.5q15 63 35 143q-60 52 -108 93q-21 17 -40.5 34t-35.5 30.5t-26.5 22.5t-11.5 10q-12 11 -20.5 24.5t-6.5 28t11 22.5t21 10l315 29l117 273q6 17 17.5 28.5t30.5 11.5q10 0 17.5 -4.5t13 -10.5t9 -12.5t5.5 -10.5l114 -273l315 -30q21 -5 29 -12t8 -22t-8.5 -25.5
t-22.5 -25.5z" />
    <glyph glyph-name="uniE623" unicode="&#xe623;" 
d="M640 348q40 0 76 -16t62 -42.5t41.5 -63t15.5 -77.5v-83v-4v-53q0 -15 -10.5 -26t-25.5 -11h-76v-82q0 -21 -15 -36t-35 -15h-290q-21 0 -35.5 15t-14.5 36v82h-77q-14 0 -25 11t-11 26v140q0 41 15.5 77.5t41.5 63t62 42.5t76 16h19q-53 27 -86.5 79t-33.5 117
q0 45 17 85t46 69.5t67.5 46.5t82.5 17t83 -17t68 -46.5t45.5 -69.5t16.5 -85q0 -65 -32.5 -117t-85.5 -79h18z" />
    <glyph glyph-name="uniE624" unicode="&#xe624;" 
d="M347 29q20 0 37 -7.5t30.5 -20t20.5 -30t7 -37t-7 -37t-20.5 -30t-30.5 -20.5t-37 -8t-37 8t-30.5 20.5t-20.5 30t-7 37t7 37t20.5 30t30.5 20t37 7.5zM773.5 27q19.5 0 37 -7.5t30.5 -20t20.5 -30t7.5 -37t-7.5 -37t-20.5 -30t-30.5 -20.5t-37 -8t-37 8t-30.5 20.5
t-20.5 30t-7.5 37t7.5 37t20.5 30t30.5 20t37 7.5zM945 608q29 0 45 -7.5t22.5 -19t6 -24t-3.5 -22t-13 -38t-22 -63t-24 -68t-18 -53.5q-13 -41 -33.5 -56.5t-50.5 -15.5h-35h-66h-87h-96h-254l16 -93h516q49 0 49 -42q0 -20 -9.5 -35t-38.5 -15h-49h-95h-118h-120h-98h-57
q-20 0 -34 9.5t-23 24t-15 32t-9 33.5q-1 6 -5.5 29.5t-11 58.5t-15 79t-16.5 88q-19 103 -44 230h-77q-15 0 -25 7.5t-17 18.5t-9.5 23t-2.5 23q0 20 14 33.5t37 13.5h23h20h26h35q20 0 32.5 -6.5t19.5 -15.5t10 -19t5 -18t4.5 -23t4.5 -30q3 -18 6 -39h700z" />
    <glyph glyph-name="uniE625" unicode="&#xe625;" 
d="M464 164q-2 -11 -5 -17t-15 -13q-26 -16 -56.5 -26.5t-58.5 -22.5t-48.5 -32t-25.5 -56q-2 -11 -2.5 -22t-1.5 -20q-1 -2 -2 -3.5t-2 -3.5q-40 3 -80.5 7t-74.5 9t-57.5 10.5t-29.5 10.5q-9 7 -13.5 42.5t3.5 92.5q5 31 26 47.5t49.5 26.5t58 18t53.5 22q18 12 27.5 22.5
t13.5 21t4 21.5t-1 24q-2 21 -13.5 32.5t-25.5 23.5q-8 5 -13.5 16t-9.5 23l-9 27q-6 2 -12 6q-5 4 -10.5 12t-10.5 22.5t-4 27t5 21.5q4 11 11 18q-1 33 3 66q4 28 13.5 59.5t27.5 56.5q16 24 36.5 39.5t41 24t42 11.5t41.5 3q51 0 91.5 -21.5t60.5 -45.5q13 -17 16.5 -32
t9.5 -34q-19 -11 -40.5 -33t-38.5 -44q-20 -28 -30 -62.5t-15 -64.5q-5 -35 -5 -71q-8 -9 -13 -20q-4 -10 -5 -23.5t4 -30.5q6 -17 12 -26t11 -14q6 -6 12 -8q4 -16 8 -31q4 -12 9.5 -24.5t13.5 -18.5q7 -6 11.5 -10t7 -8t3 -10t2.5 -16zM1004 -22q4 -15 6.5 -35t2.5 -41
t-3 -39t-9 -27q-4 -6 -24 -12.5t-49 -11.5t-64.5 -9.5t-71.5 -7.5t-69.5 -5t-59 -2t-58.5 2t-68.5 5t-70 6.5t-63.5 8t-48.5 9t-24.5 9.5q-8 7 -13 42.5t3 90.5q5 33 25.5 49t49 26.5t58.5 18t53 22.5q18 12 28 22t14.5 20.5t4.5 21.5t-1 25q-2 20 -14 32t-27 23
q-7 6 -12.5 17t-9.5 22q-4 13 -8 28q-6 2 -12 6q-5 4 -10.5 12t-11 22.5t-4.5 27t5 20.5q5 10 12 18q-1 33 3 66q4 29 12.5 59.5t26.5 57.5q16 24 36.5 39.5t42 24t42.5 11.5t40 3q52 0 92.5 -21.5t59.5 -45.5q23 -27 33.5 -61t15.5 -64q5 -34 4 -69q5 -4 9 -11
q3 -6 5.5 -15.5t0.5 -23.5q-2 -19 -8 -30t-12 -17q-7 -7 -16 -9q-4 -15 -8 -28q-4 -11 -10 -22t-14 -16q-8 -7 -14.5 -12t-11.5 -10.5t-8.5 -13t-5.5 -17.5q-2 -13 -1.5 -26.5t6.5 -27t19.5 -25.5t38.5 -21q21 -9 47 -15.5t49.5 -16t42.5 -23.5t27 -36z" />
    <glyph glyph-name="uniE626" unicode="&#xe626;" horiz-adv-x="1033" 
d="M491 -15q4 -19 13.5 -41.5t26.5 -45.5t45 -45.5t68 -41.5q-27 -7 -63 -11q-30 -4 -74.5 -7t-102.5 -3q-30 0 -68.5 2t-79.5 6t-81.5 9t-74 10t-56.5 10.5t-29 11.5q-10 8 -16 49.5t5 107.5q6 37 30.5 56.5t56.5 31.5t67 21.5t63 26.5q21 14 32.5 26t16 24.5t4.5 25.5
t-1 29q-2 24 -16 37.5t-31 27.5q-8 7 -14 19.5t-11 26.5q-6 15 -11 31q-7 2 -14 8q-6 5 -12.5 14t-12 26.5t-3.5 31t6 24.5q4 13 12 23q0 39 4 77q4 33 14 70.5t32 66.5q19 28 42.5 45.5t48 28t49.5 14.5t48 4q29 0 56 -7t50 -18.5t41.5 -25.5t29.5 -29q26 -32 38.5 -71.5
t17.5 -74.5q5 -40 4 -81q7 -5 12 -13q4 -8 6.5 -19t0.5 -27q-2 -23 -9 -35.5t-15 -19.5q-9 -9 -19 -12q-5 -16 -10 -31q-5 -14 -11.5 -26.5t-14.5 -19.5q-9 -8 -14 -16t-8 -16t-7 -17.5t-11 -21.5q-23 -36 -36.5 -69t-18.5 -63t-3 -58t8 -56zM1014 -151q14 -18 15.5 -30
t-9.5 -23q-6 -7 -16 -7.5t-20.5 3.5t-20 10t-17.5 12l-71 65q-29 -17 -61 -24.5t-64 -5.5t-62.5 15.5t-55.5 39.5q-28 28 -42.5 64.5t-14.5 74t14.5 74t42.5 64.5q28 29 63.5 43.5t72.5 14.5t72.5 -14.5t64.5 -43.5q24 -25 38 -56.5t16.5 -64.5t-5.5 -65.5t-25 -60.5l39 -38
q15 -16 28 -30zM769.5 -88q26.5 0 50 10t41 28t27.5 42t10 51.5t-10 51t-27.5 41.5t-41 28t-50 10t-50 -10t-40.5 -28t-27.5 -41.5t-10.5 -51t10.5 -51.5t27.5 -42t40.5 -28t50 -10z" />
    <glyph glyph-name="uniE627" unicode="&#xe627;" 
d="M763 -126q-43 0 -81.5 16.5t-67 45t-45 67t-16.5 81.5t16.5 81.5t45 66.5t67 44.5t81.5 16.5t81.5 -16.5t66.5 -44.5t44.5 -66.5t16.5 -81.5t-16.5 -81.5t-44.5 -67t-66.5 -45t-81.5 -16.5zM866 118h-75v70q0 15 -9.5 25t-24 10t-22.5 -10t-8 -25v-70h-67
q-14 0 -24 -10.5t-10 -24.5t10 -21.5t24 -7.5h67v-72q0 -15 8 -25t22.5 -10t24 10t9.5 25v72h75v-2q15 0 25 8.5t10 22.5t-10 24.5t-25 10.5zM613 373q-4 -17 -8 -30q-4 -11 -10 -23t-13 -18q-10 -7 -13.5 -15.5t-6 -17t-5.5 -17.5t-10 -19q-24 -30 -35.5 -59t-16.5 -55.5
t-2.5 -52.5t8.5 -51q4 -18 12 -38t24 -41t40.5 -41t61.5 -38q-25 -6 -57 -10q-28 -3 -68.5 -5.5t-92.5 -2.5q-27 0 -62 2t-72.5 5t-74 7.5t-66.5 9t-51 9.5t-26 9q-10 8 -15 45.5t3 98.5q5 33 27 51t52 28.5t62 19t57 23.5q19 13 29.5 23.5t14.5 22t4 23.5t-1 27
q-2 21 -15 33.5t-27 24.5q-8 6 -14 18.5t-10 23.5q-6 13 -9 30q-7 2 -13 6q-5 4 -11 12t-12 25q-5 15 -3.5 28.5t6.5 22.5q4 11 11 19q0 35 4 70q4 30 12.5 63.5t28.5 60.5q18 26 39 42t43.5 25.5t45 13t43.5 3.5q26 0 51 -6t46 -16.5t37 -23t27 -26.5q23 -30 34 -65.5
t16 -67.5q5 -37 4 -74q6 -5 10 -12q4 -6 6 -16.5t0 -25.5q-2 -19 -8 -30.5t-13 -17.5q-8 -7 -18 -10z" />
    <glyph glyph-name="uniE628" unicode="&#xe628;" 
d="M447 47h-197q-28 2 -42.5 23t-18.5 47q4 25 18.5 41.5t42.5 18.5h197v65l-197 1q-28 2 -42.5 19.5t-18.5 43.5q4 26 18.5 42.5t42.5 18.5h147l-137 241q-10 13 -19.5 31.5t-8.5 41.5q6 29 21 46.5t57 23.5q25 -2 44.5 -17t31.5 -33l156 -284l171 286q12 18 31.5 31
t43.5 17q16 -1 28.5 -4.5t22.5 -10.5t16.5 -20.5t9.5 -34.5q0 -30 -20 -56l-159 -258h151q26 -2 41.5 -18.5t17.5 -42.5q-2 -26 -18 -44.5t-42 -20.5l-196 -1v-63h197q26 -2 41.5 -20.5t17.5 -43.5q-2 -27 -17.5 -45t-41.5 -20l-197 1v-108q-4 -87 -95 -87q-45 0 -70 21.5
t-28 65.5v106z" />
    <glyph glyph-name="uniE629" unicode="&#xe629;" horiz-adv-x="1026" 
d="M898 554q24 1 47 -9.5t41 -27t28.5 -39t10.5 -46.5v-390q0 -25 -10.5 -47.5t-28.5 -40.5t-41 -28t-48 -10h-697q-25 0 -49 10t-42.5 27.5t-29.5 40.5t-11 49v382q0 22 10.5 45.5t28.5 41.5t40 30t44 12h64l13 84q3 20 18.5 32.5t35.5 12.5h456q20 0 34.5 -11t16.5 -34
l15 -84h54zM549 99q41 0 78 16t63.5 42.5t42.5 63t16 77.5t-16 77.5t-42.5 63t-63.5 42.5t-78 16t-77.5 -16t-63.5 -42.5t-43 -63t-16 -77.5t16 -77.5t43 -63t63.5 -42.5t77.5 -16z" />
    <glyph glyph-name="uniE62A" unicode="&#xe62a;" 
d="M508 760q95 0 179 -36.5t146 -98.5t98.5 -145.5t36.5 -178.5t-36.5 -179t-98.5 -146t-146 -98.5t-179 -36.5t-178.5 36.5t-145.5 98.5t-98.5 146t-36.5 179t36.5 178.5t98.5 145.5t145.5 98.5t178.5 36.5zM736 239q31 0 55.5 15.5t24.5 47.5q0 31 -24.5 45.5t-55.5 14.5
h-452q-31 0 -56.5 -14.5t-25.5 -45.5q0 -32 25.5 -47.5t56.5 -15.5h452z" />
    <glyph glyph-name="uniE62B" unicode="&#xe62b;" 
d="M827.5 616.5q65.5 -65.5 97.5 -147.5t32 -168t-32 -168t-97.5 -147.5t-147.5 -98t-168 -32.5t-168.5 32.5t-148 98t-98 147.5t-32.5 168t32.5 168t98 147.5t148 97.5t168.5 32t168 -32t147.5 -97.5zM720.5 96.5q21.5 21.5 19 49t-23.5 49.5l-108 107l108 108
q21 21 23.5 48.5t-19 49t-51.5 21.5t-52 -21l-107 -107l-104 105q-22 20 -49.5 22.5t-49.5 -17.5q-21 -22 -21 -52.5t21 -52.5l105 -104l-105 -104q-21 -22 -21 -52t21.5 -51.5t49 -19t49.5 23.5l104 105l107 -108q22 -21 52 -21t51.5 21.5z" />
    <glyph glyph-name="uniE62C" unicode="&#xe62c;" 
d="M937 12q5 -16 7.5 -40t2.5 -48.5t-3.5 -46t-10.5 -32.5q-5 -7 -28 -14t-57 -14t-76 -12t-83.5 -9t-81 -6t-69 -2t-68.5 2.5t-80 6t-81.5 8t-74 10t-56.5 10.5t-29 10q-11 8 -16.5 50t3.5 108q6 38 30.5 57.5t57.5 31t68 21t63 26.5q21 13 32.5 25.5t16.5 24.5t5 25.5
t-1 29.5q-2 24 -16.5 37.5t-30.5 27.5q-8 8 -15 20.5t-12 25.5q-5 16 -10 33q-9 1 -18 6q-8 5 -16.5 15t-13.5 27t-2.5 31.5t8.5 24.5q6 11 18 22q0 38 4 77q4 33 14 70t32 67q19 29 42.5 46.5t48.5 28t49.5 14t48.5 3.5q29 0 56 -6.5t50 -18t41.5 -25.5t30.5 -29
q26 -32 38.5 -72t17.5 -75q5 -41 4 -81q10 -5 16 -14q5 -7 9 -18t2 -28q-2 -22 -10 -34.5t-18 -19.5q-11 -8 -23 -11q-5 -17 -10 -33q-5 -13 -12 -25.5t-15 -20.5q-18 -15 -30.5 -25.5t-16.5 -36.5q-3 -15 -2.5 -31t8 -31.5t23.5 -30t45 -25.5q24 -10 54 -18.5t58.5 -19
t50.5 -26.5t31 -43zM542 234q18 0 31.5 13.5t13.5 32.5t-13.5 32.5t-31.5 13.5q-20 0 -33 -13.5t-13 -32.5t13 -32.5t33 -13.5zM579 419q-1 12 14.5 26t35 30t35.5 37t18 48q2 28 -5.5 53.5t-24.5 44.5t-44.5 30t-63.5 11q-45 0 -76 -16.5t-49 -39t-25.5 -47.5t-7.5 -41
q1 -20 12.5 -28.5t25 -9t25 7.5t11.5 23q0 9 5.5 21.5t15.5 25t23.5 20.5t29.5 8q34 0 54 -17t19 -42q0 -19 -16 -34t-34.5 -30.5t-35 -32.5t-17.5 -41v-27q1 -12 11 -22t28 -11q17 1 26.5 11t9.5 25v17z" />
    <glyph glyph-name="uniE62D" unicode="&#xe62d;" 
d="M684 409q-17 8 -15.5 21.5t11.5 22.5q3 2 20 15.5t41 33.5q-43 49 -102 77t-129 28q-65 0 -121 -24t-98 -66t-66 -98.5t-24 -120.5t24 -120t66 -98t98 -66t121 -24q53 0 100.5 17t87 47.5t68 72t41.5 90.5q7 24 26.5 39t46.5 15q31 0 53 -22.5t22 -52.5q0 -15 -5 -28
q-21 -72 -63 -132.5t-100 -104t-128.5 -68t-148.5 -24.5q-95 0 -179 36t-146 98.5t-98.5 146t-36.5 178.5t36.5 179t98.5 146t146 98.5t179 36.5q105 0 195.5 -43.5t153.5 -118.5q24 17 39.5 30t20.5 16q6 5 13 7.5t13 0t11 -10.5t7 -25q1 -9 2 -31t2 -51t1 -60.5t-1 -58.5
q-1 -35 -17 -51q-8 -8 -24.5 -9t-34.5 3q-28 6 -61 13.5t-63.5 15t-53.5 14t-29 10.5z" />
    <glyph glyph-name="uniE62E" unicode="&#xe62e;" 
d="M774 11q9 25 31 33.5t42.5 3.5t32.5 -23t2 -45q-12 -33 -37.5 -71.5t-71.5 -69t-115.5 -45t-168.5 1.5q-68 12 -129 29t-108.5 34.5t-79.5 31.5t-42 19l-4 -4l-15 384q7 71 16 139q4 28 8.5 58.5t9.5 60.5t10 57t11 49q13 54 39 75t50.5 18.5t42.5 -23t16 -49.5
q-2 -20 -7 -58.5t-11.5 -84.5t-13.5 -93t-13 -83q11 30 26 68.5t33.5 81.5t39.5 86t42 81.5t43.5 68t43.5 44.5q42 27 71.5 25.5t46 -17.5t18 -40.5t-13.5 -42.5q-17 -18 -37 -58.5t-40 -82.5q-23 -49 -46 -106q36 37 74 70q31 29 70 58t75 45q35 17 65 16t47 -14t15.5 -35
t-30.5 -46q-14 -12 -33 -29t-41 -36.5t-45.5 -40.5t-45.5 -41q-51 -48 -108 -99q88 23 163 22q32 0 63.5 -5.5t58.5 -19t47 -35.5t28 -57q10 -45 1.5 -74.5t-26 -41.5t-38.5 -3t-36 42q-14 34 -27 47t-28 14t-31.5 -5.5t-37.5 -11.5q-14 -3 -31.5 -13t-33 -24.5t-28 -31
t-16 -34t3 -33t28.5 -26.5q34 -17 62.5 -28.5t51 -14.5t38.5 4t23 28z" />
    <glyph glyph-name="uniE62F" unicode="&#xe62f;" 
d="M286 579q-15 15 -22 33t-7 37t7 37t22 32q28 30 68 30t68 -30l379 -381q14 -13 20 -31t5 -38.5t-9 -40.5t-22 -34l-373 -375q-28 -30 -68 -30t-68 30q-15 14 -22 32t-7 36.5t7 37t22 32.5l308 311z" />
    <glyph glyph-name="uniE630" unicode="&#xe630;" 
d="M800 580l-308 -312l308 -312q14 -14 21 -32.5t7 -37t-7 -36.5t-21 -32q-29 -30 -68.5 -30t-68.5 30l-372 375q-15 14 -23 34t-9 40.5t5 39t21 31.5l378 381q29 29 68.5 29t68.5 -29q14 -14 21 -32.5t7 -37.5t-7 -36.5t-21 -32.5z" />
    <glyph glyph-name="uniE631" unicode="&#xe631;" 
d="M854 73l-313 309l-314 -309q-14 -15 -32.5 -22t-37.5 -7t-37 7t-32 22q-30 28 -30 68t30 69l377 374q14 14 34 22t40.5 9t39.5 -5t31 -20l383 -380q29 -29 29 -69t-29 -68q-14 -15 -32.5 -22t-37.5 -7t-37 7t-32 22z" />
    <glyph glyph-name="uniE632" unicode="&#xe632;" horiz-adv-x="1026" 
d="M857 588q29 28 69.5 28t68.5 -28q30 -29 30 -69t-30 -68l-383 -381q-12 -15 -30.5 -20.5t-39 -4.5t-40.5 8.5t-34 22.5l-377 375q-30 28 -30 68t30 69q14 14 32 21t37 7t37.5 -7t32.5 -21l314 -310z" />
    <glyph glyph-name="uniE633" unicode="&#xe633;" 
d="M926 428q19 0 37 -7.5t31 -20.5t20.5 -31t7.5 -37q0 -21 -7.5 -38.5t-20.5 -30t-31 -20.5t-37 -8h-288v-287q0 -21 -7.5 -38.5t-20.5 -30t-31 -20.5t-37 -8q-21 0 -38.5 8t-30 20.5t-20.5 30t-8 38.5v287h-287q-21 0 -38.5 8t-30 20.5t-20.5 30t-8 38.5q0 19 8 37
t20.5 31t30 20.5t38.5 7.5h287v288q0 19 8 37t20.5 31t30 20.5t38.5 7.5q40 0 68 -28t28 -68v-288h288z" />
    <glyph glyph-name="uniE634" unicode="&#xe634;" horiz-adv-x="1026" 
d="M901 169l-781 3q-25 0 -47.5 8.5t-39 25t-26 39.5t-9.5 53q0 29 9.5 53t26 40.5t39 25.5t47.5 9h781q25 0 47 -9t38 -25.5t26 -40.5t10 -53q0 -30 -10 -53.5t-26 -40.5t-38 -26t-47 -9z" />
    <glyph glyph-name="uniE635" unicode="&#xe635;" 
d="M346 5q20 0 37 -7t30 -20t20.5 -30.5t7.5 -37t-7.5 -36.5t-20.5 -30t-30 -20.5t-37 -7.5t-37.5 7.5t-30.5 20.5t-20.5 30t-7.5 36.5t7.5 37t20.5 30.5t30.5 20t37.5 7zM772.5 3q19.5 0 37 -7t30.5 -20t20.5 -30.5t7.5 -37t-7.5 -36.5t-20.5 -30t-30.5 -20.5t-37 -7.5
t-37 7.5t-30.5 20.5t-20.5 30t-7.5 36.5t7.5 37t20.5 30.5t30.5 20t37 7zM944 585q29 0 45 -8t22.5 -19t6 -24t-3.5 -22t-13.5 -38t-22 -63t-23.5 -68t-19 -53q-13 -41 -33 -57t-50 -16h-36h-65h-86h-97h-254l15 -92h517q49 0 49 -42q0 -21 -9.5 -35.5t-38.5 -14.5h-49h-94
h-119h-120h-99h-56q-20 0 -34 9t-23 24t-15 32.5t-9 32.5q-1 6 -5.5 29.5t-11 59t-15 79t-16.5 87.5q-19 103 -44 230h-77q-15 0 -25 8t-17 18.5t-9.5 23t-2.5 22.5q0 21 14 34t37 13h22h21h26h35q20 0 32.5 -6t19.5 -15.5t10 -19.5t5 -17q2 -8 4.5 -23t4.5 -30q3 -19 6 -39
h700zM867 617h-374l135 136q23 23 51.5 23.5t51.5 -22.5z" />
    <glyph glyph-name="uniE636" unicode="&#xe636;" horiz-adv-x="1028" 
d="M333 21q19 0 36.5 -7t30.5 -19.5t20.5 -30t7.5 -37t-7.5 -37t-20.5 -30.5t-30.5 -20.5t-36.5 -7.5q-21 0 -38 7.5t-30 20.5t-20.5 30.5t-7.5 37t7.5 37t20.5 30t30 19.5t38 7zM758.5 19q19.5 0 37.5 -7t31 -20t20.5 -30t7.5 -36.5t-7.5 -37t-20.5 -30.5t-31 -20.5
t-37.5 -7.5t-36.5 7.5t-30 20.5t-20.5 30.5t-7.5 37t7.5 36.5t20.5 30t30 20t36.5 7zM931 601q28 0 44 -7.5t23 -19t6.5 -24t-4 -22t-13.5 -38t-22 -63t-23.5 -68t-18.5 -53.5q-14 -41 -34 -57t-49 -16h-36h-66h-86h-96h-254l14 -92h518q49 0 49 -42q0 -20 -10 -35.5
t-38 -14.5h-50h-94h-119h-119h-100h-55q-20 0 -34 9.5t-23.5 24t-15 32t-8.5 32.5q-1 7 -5.5 30.5t-11 58.5t-15 78.5t-16.5 87.5q-19 104 -44 231h-77q-15 0 -25.5 7.5t-17 18.5t-9 23t-2.5 22q0 21 14 34.5t37 12.5h103q21 0 33.5 -6.5t19.5 -15.5t10 -19t5 -17
q2 -8 4 -23l4 -30q3 -18 6 -39h701zM893 510l-641 2l36 -185l535 -1z" />
    <glyph glyph-name="uniE637" unicode="&#xe637;" horiz-adv-x="1090" 
d="M547 738q25 0 49 -10t40.5 -28t27 -41.5t10.5 -50.5q0 -39 -20 -69.5t-52 -47.5q-11 -31 -11 -65q0 -38 13.5 -75.5t38 -67.5t56.5 -49t69 -19q32 0 60 15.5t51 39.5t39 54t23 60q-28 13 -45 40t-17 59q0 23 8 42.5t22.5 33.5t34 23t41 9t40.5 -9t33.5 -23t23 -33.5
t8.5 -42.5q0 -32 -17 -58.5t-44 -39.5q-5 -51 -15 -104.5t-25.5 -106t-36 -101.5t-45.5 -90q-85 -32 -176 -49t-187.5 -17t-187 17t-176.5 49q-24 41 -44.5 90t-36 101.5t-26.5 106t-15 104.5q-26 13 -42 39.5t-16 58.5q0 23 8 42.5t22 33.5t33 23t40.5 9t41 -9t34 -23
t22.5 -33.5t8 -42.5q0 -33 -17.5 -60t-45.5 -39q8 -31 23.5 -61t38.5 -54.5t51.5 -40t59.5 -15.5q37 0 69.5 19t57 49t38.5 68t14 76q0 36 -15 70q-28 17 -46 47t-18 66q0 27 10 50.5t27.5 41.5t40.5 28t50 10z" />
    <glyph glyph-name="uniE638" unicode="&#xe638;" 
d="M776 365q23 -27 17.5 -45.5t-33.5 -17.5q-8 0 -20.5 -0.5t-25.5 -0.5t-25 -0.5t-21 -0.5q-20 0 -24.5 -12.5t-4.5 -32.5q0 -15 0.5 -42t1 -59t0.5 -68t0.5 -68t1 -60t0.5 -43q0 -10 -1.5 -21t-7 -20t-16.5 -15t-28 -6q-23 0 -41.5 0.5t-42.5 0.5q-34 0 -45 14t-12 49v35
q0 23 -1 53.5t-1 64.5t-0.5 66t-0.5 58v40q-1 30 -7 48t-27 17q-16 0 -35.5 0.5t-34.5 0.5q-28 0 -35.5 14t10.5 37q19 25 44 54.5t51.5 61t52 61.5t45.5 56q18 23 35 23t36 -20q19 -23 44 -51t51.5 -58t52.5 -59.5t47 -53.5zM768 621h-447v128h447v-128z" />
    <glyph glyph-name="uniE639" unicode="&#xe639;" 
d="M760 299q28 0 33.5 -18t-17.5 -44q-21 -26 -47 -55t-52.5 -59.5t-51.5 -58t-44 -50.5q-35 -41 -71 3q-20 26 -45.5 56t-52 61t-52 60.5t-44.5 54.5q-18 23 -11 38t36 15q16 0 35.5 0.5t35.5 0.5q21 -1 26.5 16.5t6.5 47.5v39q0 27 0.5 59.5t0.5 66.5t0.5 64.5t0.5 53.5
v35q2 34 13.5 49.5t45.5 14.5q23 0 42 0.5t41 0.5q17 0 28 -6.5t16.5 -15.5t7 -20.5t1.5 -21.5q0 -15 -0.5 -42.5t-1 -60t-0.5 -68t-0.5 -68t-1 -59.5t-0.5 -41q0 -21 4.5 -33t25.5 -12q9 0 21 -0.5t25 -1t25.5 -1t20.5 -0.5zM319 -19h449v-130h-449v130z" />
    <glyph glyph-name="uniE63A" unicode="&#xe63a;" 
d="M510 746q92 0 174 -35t142.5 -96t95.5 -142.5t35 -173.5q0 -93 -35 -174.5t-95.5 -142.5t-142.5 -96t-174 -35q-93 0 -174.5 35t-142.5 96t-96 142.5t-35 174.5q0 92 35 173.5t96 142.5t142.5 96t174.5 35zM507 624q-67 0 -125 -25.5t-101.5 -69t-69 -101.5t-25.5 -125
q0 -51 14.5 -95.5t41.5 -83.5l444 443q-39 27 -84 42t-95 15zM507 -17q65 0 123.5 25t102 68.5t68.5 102t25 124.5q0 95 -50 174l-443 -443q39 -25 82 -38t92 -13z" />
    <glyph glyph-name="uniE63B" unicode="&#xe63b;" 
d="M800 666q33 -45 36.5 -101.5t-26.5 -108.5q-29 -51 -77.5 -76t-102.5 -21q-9 -25 -23.5 -64t-32 -84t-36 -92t-35.5 -88.5t-31 -73.5t-22 -46q-16 -27 -42.5 -41t-55.5 -17.5t-58 4t-47 22.5q-26 22 -38.5 44.5t-15.5 46t4.5 47.5t21.5 49q7 13 26 38t44 57.5t54.5 68.5
t58 71t54.5 66t45 53q-22 22 -34.5 51t-16.5 59t2.5 61t23 59.5t41.5 49.5t54 32.5t61 14t63 -7.5q-1 -1 -1.5 -2t-1.5 -2l-64 -110q-15 -24 -7.5 -49t31 -39.5t48.5 -7t38 30.5zM389 -13q9 14 4.5 31t-18.5 25q-16 8 -32 4t-25 -18q-9 -16 -4.5 -33t19.5 -25t31.5 -4
t24.5 20z" />
    <glyph glyph-name="uniE63C" unicode="&#xe63c;" 
d="M836 749q26 0 49 -10.5t40.5 -28t28 -40.5t10.5 -49v-642q0 -26 -10.5 -49t-28 -40.5t-40.5 -28t-49 -10.5h-449q-27 0 -50 10.5t-40 28t-27.5 40.5t-10.5 49v193h128v-193h449v642h-449v-193h-128v193q0 26 10.5 49t27.5 40.5t40 28t50 10.5h449zM513 198q0 19 -9.5 28
t-24.5 9h-379q-14 0 -24.5 8t-10.5 26v53q0 29 9 37t36 8h31q25 0 58.5 -0.5t73.5 -1t77.5 -1.5t69.5 -1h51q23 0 32.5 16.5t9.5 36.5v49q0 20 8.5 25.5t26 -9t47.5 -33t62 -38t63 -38.5t49 -34q14 -11 14 -30.5t-11 -29.5q-16 -14 -44.5 -32t-59.5 -37t-60.5 -37t-48.5 -34
q-23 -19 -34.5 -19.5t-11.5 29.5v50z" />
    <glyph glyph-name="uniE63D" unicode="&#xe63d;" 
d="M516 16l-2 3q-72 -42 -131 -76l-50 -28q-25 -14 -45 -26.5t-35 -20.5t-20 -11q-10 -5 -21 -3.5t-19.5 7.5t-13 15.5t-2.5 18.5q1 4 5 19t9 37.5t12 49t14 53.5q16 63 35 142q-60 52 -107 93q-21 17 -40.5 34t-35.5 30.5t-26 22t-11 9.5q-13 12 -22 25t-7 27q3 15 12 23.5
t21 10.5l314 29l118 271q6 18 16 29.5t30 11.5h2v-796z" />
    <glyph glyph-name="uniE63E" unicode="&#xe63e;" 
d="M588 -150q-61 0 -117.5 26t-101 70t-71.5 101.5t-27 122.5v40q0 23 -0.5 50.5t-0.5 53.5v48q0 30 -6 47.5t-26 16.5q-16 0 -36 0.5t-36 0.5q-27 0 -34.5 14.5t10.5 37.5q19 25 44 56.5t51.5 65.5t52 66.5t46.5 58.5q18 24 34.5 24.5t35.5 -21.5q18 -22 43 -52.5t51.5 -63
t52.5 -64.5t46 -56q23 -27 17.5 -45t-32.5 -18q-9 0 -20.5 -0.5t-25 -1t-25.5 -1t-21 -0.5q-20 0 -24.5 -12t-4.5 -32q1 -46 1 -103v-107q0 -24 10.5 -47.5t28.5 -43t41.5 -31.5t50.5 -12h72q41 0 79 0.5t67 0.5h36q22 0 37 -14t22.5 -35t7.5 -45.5t-7 -45.5t-21 -35
t-34 -14h-28h-48q-26 0 -56.5 -0.5t-57.5 -0.5h-48h-28z" />
    <glyph glyph-name="uniE63F" unicode="&#xe63f;" 
d="M230 574q11 31 20 49t20 26.5t24 11.5t33 4h118l-118 -746h-157q-64 0 -80.5 44.5t7.5 126.5q8 27 19.5 67.5t24.5 87t25.5 96t25 94.5t22 81.5t16.5 57.5zM582 539h-75l6 125h61zM596 227h-103l11 249h81zM598 165l11 -249h-131l11 249h109zM998 78q8 -23 12 -50.5
t0 -51.5t-19 -40.5t-45 -16.5h-186l-120 746h96q51 0 86 -23t54 -81q6 -18 15 -57l22 -88q13 -49 25.5 -102.5t24.5 -100.5l21 -84q9 -37 14 -51z" />
    <glyph glyph-name="uniE640" unicode="&#xe640;" horiz-adv-x="1089" 
d="M-15 505q31 -24 50.5 -38t34.5 -26.5t29.5 -26.5t35.5 -36q33 -33 32.5 -79.5t-21.5 -108.5q-6 -20 -10.5 -32.5t-9.5 -24t-11.5 -26t-18 -38t-28.5 -59.5t-41 -91l-150 91q46 43 87 84l34 36q17 18 32.5 35.5t28 34t18.5 29.5q13 27 9 48t-15 35q-13 17 -34 29l-114 70z
M947 529q10 -52 15 -119q4 -59 3.5 -140t-12.5 -183q-5 -51 -24.5 -85.5t-47.5 -56t-62 -31.5t-68 -13q-81 -8 -182 17l21 77l80 -18q28 -2 50 2.5t39 13t29 19t20 23.5q18 27 25 63v384q0 55 -29.5 85.5t-83 38t-129.5 -5.5t-168 -46l56 -16q-3 -13 -16 -24.5t-31 -34.5
h337v-63h-191v-126h190v-67h-39l68 -168l-107 -45l-20 72q-18 -13 -47 -33t-70.5 -37.5t-94 -30t-118.5 -10.5q-36 -1 -60.5 9t-41 26t-25.5 37t-13 44q-11 52 0 120l14 3h112q-1 -10 -4 -24t-4.5 -28t-1 -26t7.5 -21q4 -9 20 -12.5t34.5 -4t36.5 -0.5h25h9v129h-219v67h219
v126h-76q-18 -18 -32 -36t-26 -32q-13 -17 -24 -33l-58 51q16 16 31 36.5t28.5 41.5t26.5 41.5t22 37.5q-16 -6 -31.5 -13t-33.5 -14q-16 -21 -34 -41t-38 -40q0 -2 -15 5.5t-33 17.5q-22 12 -48 27q36 32 65 78.5t49 89.5q24 50 42 104l136 -38q-4 -11 -9 -22
q-5 -10 -11 -24t-14 -28q102 28 181 39.5t138.5 10.5t102 -12.5t72.5 -27.5q68 -38 87 -106zM578 106q20 9 39.5 18t35.5 22l-16 61l52 16h-111v-117zM67 542q-21 0 -39 6.5t-31 18.5t-21 27t-8 33.5t8 34.5t21 27.5t31 18.5t39 7q19 0 36.5 -7t30.5 -18.5t21 -27.5t8 -34.5
t-8 -33.5t-21 -27t-30.5 -18.5t-36.5 -6.5z" />
    <glyph glyph-name="uniE641" unicode="&#xe641;" horiz-adv-x="1026" 
d="M717 810q67 -28 124 -74.5t97.5 -106.5t63.5 -131t23 -149q0 -68 -18 -131.5t-50 -119t-77.5 -101t-101 -78t-119.5 -50.5t-133 -18q-77 0 -148.5 23t-131.5 63.5t-106.5 97.5t-73.5 125q64 -74 153 -116t195 -42q95 0 179 36.5t146.5 99t98.5 146.5t36 179
q0 104 -42 193.5t-115 153.5zM220 522l-89 86l123 19l54 110l56 -110l122 -19l-89 -86l22 -123l-111 59l-109 -59z" />
    <glyph glyph-name="uniE642" unicode="&#xe642;" 
d="M241 -62q-18 -18 -37.5 -21t-36 6.5t-28 30.5t-11.5 52v462q0 28 9.5 53t26 43.5t39 29t48.5 10.5q59 0 122.5 -0.5t127 -0.5t124.5 -0.5t116 -0.5q27 0 45.5 -11t27 -27.5t5.5 -36.5t-20 -37q-20 -19 -51 -49.5t-70 -69t-82.5 -82t-87.5 -87t-86.5 -85.5t-78 -77.5
t-62.5 -62t-40 -39.5z" />
    <glyph glyph-name="uniE643" unicode="&#xe643;" 
d="M896 44h-81h-131h-156h-159h-142h-100q-25 0 -40 11.5t-21 28.5t-0.5 38t22.5 42q38 41 80 86t86 91l86 92q44 46 84 89q18 20 44 29t53 8.5t53 -11.5t46 -32q70 -74 147 -160t161 -184q19 -24 26.5 -47t2.5 -40.5t-20.5 -29t-40.5 -11.5z" />
    <glyph glyph-name="uniE644" unicode="&#xe644;" 
d="M708 -64l-59 59q-41 41 -94 93.5t-113.5 112t-116.5 115t-102.5 101.5t-71.5 71q-18 17 -21.5 37t5 36.5t27 27.5t45.5 11h475q62 0 99 -36.5t37 -93.5v-466q0 -31 -10.5 -52t-27 -30t-36 -6t-36.5 20z" />
    <glyph glyph-name="uniE645" unicode="&#xe645;" 
d="M242 709l40 -40q26 -27 62 -62.5t78 -77.5t86 -85.5t87.5 -87t82.5 -81t70 -68.5t51 -50q17 -18 20.5 -37.5t-5 -36t-27 -28t-45.5 -11.5q-122 0 -241 -1t-240 -1q-31 0 -55.5 10.5t-41.5 29t-26 43.5t-9 53v462q0 31 11 52.5t27.5 30.5t36.5 6t38 -20z" />
    <glyph glyph-name="uniE646" unicode="&#xe646;" 
d="M879 561q29 0 47.5 -11t24.5 -29.5t0 -41.5t-26 -46q-83 -92 -160 -180t-149 -165q-19 -20 -45 -31.5t-54 -12t-53.5 8.5t-42.5 29q-40 44 -83 90l-88 92q-43 46 -85.5 90.5t-79.5 86.5q-17 20 -22.5 41t1 38.5t23.5 28.5t45 11q36 0 99 0.5t138 0.5h153h151h126h80z" />
    <glyph glyph-name="uniE647" unicode="&#xe647;" 
d="M772.5 568.5q17.5 17.5 39.5 22.5t40.5 -2t31.5 -26.5t13 -50.5v-462q0 -28 -9 -52.5t-25.5 -43t-39 -28.5t-49.5 -10h-490q-27 0 -44 13.5t-23 33t-1 41.5t23 39q25 26 69.5 69.5t98.5 96t110.5 109t107.5 106t90.5 88.5t57 56.5z" />
    <glyph glyph-name="uniE648" unicode="&#xe648;" 
d="M766 687v-82v-129v-157v-159q0 -77 0.5 -141.5t0.5 -100.5q0 -25 -12 -41t-29.5 -22t-39 0t-40.5 24q-38 39 -82 81.5t-90.5 85.5t-94 86t-91.5 83q-20 17 -29.5 43t-8.5 53.5t11.5 54t32.5 45.5q40 34 79.5 69.5t81 73t87 78.5t96.5 87q22 20 45.5 27t41.5 2t29.5 -20.5
t11.5 -40.5z" />
    <glyph glyph-name="uniE649" unicode="&#xe649;" 
d="M256 684q0 25 11.5 40.5t29 20.5t40.5 -2t47 -27q98 -85 181 -160t164 -148q21 -19 31.5 -45t11 -53.5t-8.5 -53.5t-29 -44q-42 -41 -87.5 -84.5t-91.5 -86.5t-91.5 -85t-87.5 -80q-20 -17 -41 -22.5t-38.5 0.5t-28.5 21t-11 40v100v142q0 76 -0.5 159t-0.5 156v131v81z
" />
    <glyph glyph-name="uniE64A" unicode="&#xe64a;" horiz-adv-x="1028" 
d="M299 245q-21 -2 -48 -9t-50.5 -22t-39.5 -41t-16 -63q0 -39 18 -65t45.5 -41.5t59 -23t59.5 -8.5q49 -3 104 -5t130 0q52 2 80.5 5.5t41.5 9.5q15 5 16 12l141 10q0 -33 -21 -60t-57.5 -47t-86 -31t-106.5 -11q-33 0 -72.5 0.5t-79.5 0.5h-77q-38 0 -67 1
q-17 0 -43.5 4.5t-56 14.5t-59.5 27.5t-54 44t-40.5 63.5t-18.5 87t11.5 89t36.5 69t53.5 50.5t63.5 33t65 18t58 5.5h67h60h66h87q76 0 124.5 -21.5t76.5 -44.5q21 29 34 48.5t23.5 34t18.5 28t18 30.5q10 20 19 45.5t9 52.5t-12 52t-42 44q-31 17 -59.5 18.5t-54 -7
t-46 -25.5t-33.5 -36q-14 -21 -31 -45.5t-32 -48.5q-19 -26 -36 -54h-151q33 51 64 97q13 20 27 40.5t26.5 39.5t24.5 35l21 28q19 22 52 52t79 48.5t104 16.5t125 -41q44 -27 68 -60t33.5 -68.5t7.5 -72.5t-11 -70.5t-22 -61t-25 -45.5q-36 -56 -73 -109t-79 -111
q-17 -25 -49 -52.5t-76 -44.5t-98.5 -18t-119.5 29q-14 6 -34.5 19.5t-40 36t-34.5 54t-18 72.5q-14 -1 -26 -1t-22 -2zM682 196q-14 17 -44 29.5t-83 16.5q-17 1 -36 2l-37 2q6 -18 18.5 -33.5t34.5 -28.5q38 -21 75 -17.5t72 29.5z" />
    <glyph glyph-name="uniE64B" unicode="&#xe64b;" horiz-adv-x="1138" 
d="M914 294q28 -22 39.5 -52t9.5 -63t-14.5 -65.5t-32.5 -59.5q-34 -48 -78 -81.5t-91.5 -56.5t-95 -35.5t-89.5 -18.5t-75 -7.5t-51.5 -1.5t-49.5 2.5t-68 10t-78 21.5t-80 36.5t-74.5 55t-59.5 78.5q-17 30 -22.5 64t-5.5 86q0 22 7.5 51t27 63.5t53.5 75.5t86 90
q51 49 106 86t117 58q29 10 64 11t57 -11q10 -12 19.5 -23.5t12.5 -28.5q3 -15 0.5 -28t-5.5 -26.5t-5 -26t2 -22.5q17 -2 33.5 1.5t32.5 9.5l30 12q16 6 34 9q27 5 54.5 4.5t49.5 -7.5t36 -22t17 -39q2 -14 -2 -26.5t-8.5 -23t-7 -22t1.5 -23.5q3 -7 15 -13t27 -12.5
t32 -13.5t29 -16zM656 -25q27 17 54 45.5t44 64t19 76t-20 81.5q-20 33 -48 57t-63 37.5t-74.5 19.5t-80.5 6q-78 0 -139 -16t-105.5 -43t-72.5 -60.5t-39 -68.5q-11 -34 -6.5 -67t21 -63t42.5 -53.5t58 -37.5q58 -26 119 -32.5t116.5 -0.5t101 21.5t73.5 33.5zM522 299
q21 -8 39.5 -18.5t32.5 -27.5q10 -12 18 -30.5t11 -39.5t1.5 -42.5t-10.5 -39.5q-8 -18 -19.5 -37t-28.5 -35.5t-40.5 -29t-57.5 -18.5q-61 -12 -117.5 10.5t-88.5 75.5q-12 39 -13 70t16 67q14 27 41 51.5t62 39t75 17t79 -12.5zM359 47q38 -3 58 18.5t21.5 48t-15 47.5
t-52.5 17q-28 -3 -43.5 -23.5t-17.5 -43.5t10 -42.5t39 -21.5zM778 806q75 0 140 -20t113.5 -58t76.5 -92t28 -123q0 -34 -16.5 -51t-35.5 -17.5t-35.5 14.5t-16.5 46q0 41 -22.5 77.5t-59.5 64.5t-84.5 44t-96.5 16q-32 0 -47 15t-14 34t18.5 34.5t51.5 15.5zM778 642
q95 0 144.5 -48.5t49.5 -147.5q0 -30 -10.5 -43t-22.5 -11.5t-22.5 15t-10.5 35.5q0 61 -34.5 96.5t-93.5 35.5q-19 0 -28.5 11t-9.5 23.5t10 23t28 10.5z" />
    <glyph glyph-name="uniE64C" unicode="&#xe64c;" 
d="M517 807q92 0 172.5 -35t140.5 -95t94.5 -140t34.5 -171q0 -93 -34.5 -173t-94.5 -140t-140.5 -95t-172.5 -35h-13q-6 0 -12 1h-5q-15 2 -25.5 14t-10.5 28q0 18 12 30t30 12q4 0 12 -2l1 1h11q74 0 139.5 28t114 77t77 114.5t28.5 139t-28.5 139t-77 114t-114 76.5
t-139.5 28t-139.5 -28t-113.5 -76.5t-76 -114t-28 -138.5q0 -76 29 -144q7 -9 7 -22q0 -18 -12.5 -30t-29.5 -12q-12 0 -20.5 4.5t-14.5 12.5q-21 43 -32 90.5t-11 100.5q0 91 34.5 171t94.5 140t140.5 95t171.5 35zM722 366q0 -42 -16 -79.5t-43.5 -65t-65 -44t-80.5 -16.5
q-35 0 -66 10.5t-57 31.5q-11 -14 -28.5 -34t-37 -44.5t-40 -51.5t-37.5 -54q-26 -38 -48 -78.5t-38 -74.5q-20 -40 -36 -78l-105 4q15 44 37 92q20 41 48 91.5t67 100.5q22 27 45.5 55t46 52.5t42 44.5t32.5 33q-29 48 -29 105q0 42 16 79t43.5 65t65 43.5t79.5 15.5
q43 0 80.5 -15.5t65 -43.5t43.5 -65t16 -79z" />
    <glyph glyph-name="uniE64D" unicode="&#xe64d;" horiz-adv-x="1038" 
d="M445 273q26 2 37 -8.5t9 -35.5q-2 -26 -6 -58.5t-8.5 -66.5t-8 -68t-6.5 -63q-3 -30 -17.5 -38.5t-31.5 9.5q-11 11 -27.5 26.5t-27.5 25.5q-13 13 -23.5 9t-23.5 -17q-15 -15 -38.5 -39t-49 -50t-49.5 -50.5t-39 -38.5q-6 -7 -14 -13t-17.5 -8t-19.5 0.5t-21 14.5
q-7 7 -11.5 10.5t-8.5 7.5l-8 9l-13 12q-21 22 -16.5 37t25.5 38q9 9 31.5 30.5t47 46.5t47.5 49t36 37q20 19 26.5 33t-6.5 28q-10 9 -24.5 25t-24.5 27q-18 17 -13.5 31t31.5 17t60.5 7t69 8t70.5 8.5t63 7.5zM1019 758q21 -21 18.5 -38t-24.5 -39q-11 -10 -32.5 -32
t-47 -47.5t-49 -50t-36.5 -37.5q-20 -19 -24 -30.5t9 -25.5q10 -9 23 -23t23 -25q18 -17 13 -31t-31 -17q-27 -3 -60.5 -7.5t-69.5 -8t-71 -8t-63 -7.5q-50 -6 -46 43q3 25 6.5 58t8 67.5t8 68.5t6.5 62q3 31 17.5 39.5t32.5 -10.5q5 -6 12.5 -13t16 -14.5t15.5 -15.5
l14 -13q12 -12 20 -10.5t21 14.5q15 15 39 39.5t50.5 51t51 51.5t39.5 40q6 6 13.5 12t16.5 9t18.5 1t20.5 -13q7 -7 11.5 -11t8.5 -8l8 -8z" />
    <glyph glyph-name="uniE64E" unicode="&#xe64e;" horiz-adv-x="1028" 
d="M396 241l10 -10l8 -8l8 -8l12 -12q21 -20 17 -35.5t-26 -35.5q-9 -10 -30 -31t-45 -45.5t-46 -47t-35 -35.5q-18 -18 -25 -32t6 -27q9 -9 23.5 -24.5t24.5 -25.5q17 -17 12.5 -30.5t-29.5 -15.5q-27 -3 -59.5 -7t-67 -7.5t-67.5 -7.5t-61 -7q-26 -3 -36.5 6.5t-8.5 33.5
q2 26 5.5 57.5t8 64.5t8 65.5t6.5 60.5q3 29 16.5 37.5t31.5 -9.5q10 -10 26 -24.5t27.5 -26t21.5 -7.5t23 17q14 13 36.5 36.5t47.5 48.5l49 49q23 23 37 38q7 6 14.5 11.5t16.5 7.5t19 -1t21 -13zM911 754q26 3 36.5 -6.5t8.5 -34.5t-5.5 -56.5t-8 -65t-8 -66.5t-6.5 -60
q-3 -30 -16.5 -37.5t-31.5 9.5q-10 10 -27.5 26.5t-29 27.5t-19.5 9.5t-20 -13.5q-15 -14 -37.5 -37.5t-48 -49.5t-50.5 -50l-37 -38l-14 -12q-7 -6 -15.5 -9t-18 -1t-20.5 13l-38 39q-21 20 -18.5 37t23.5 37q9 9 30.5 31t46 46.5t47 48t36.5 35.5q18 18 22.5 30t-8.5 25
l-22 22q-13 13 -23 24q-17 17 -12.5 30t30 16t58.5 7.5t67.5 8t67.5 7.5t61 7z" />
    <glyph glyph-name="uniE64F" unicode="&#xe64f;" 
d="M928 307q18 -14 19 -26.5t-16.5 -26.5t-39 -31.5t-44 -35.5t-45.5 -36t-41 -33q-20 -17 -33.5 -13t-12.5 25q0 12 -1 31.5t-1 33.5t-9 18t-25 4q-12 0 -30 -0.5t-39 -0.5h-44h-42v-40q0 -21 0.5 -41t0.5 -37v-28q-1 -23 3.5 -36t20.5 -13q11 0 28 -0.5t29 -0.5
q20 0 25.5 -11t-8.5 -28q-14 -18 -32 -40t-36.5 -46t-36.5 -47t-33 -42q-14 -17 -26.5 -17.5t-26.5 15.5q-14 17 -31 38.5t-35 43.5l-37 47q-18 22 -33 41q-17 20 -13 33t25 13q12 0 33.5 0.5t35.5 0.5q14 1 18 10t4 24v31q0 18 -0.5 40.5t-0.5 44.5v44q-19 0 -40.5 -0.5
t-42.5 -0.5h-38h-29q-23 0 -33.5 -4.5t-9.5 -20.5q0 -11 -0.5 -27.5t-0.5 -28.5q0 -21 -11 -26.5t-29 8.5t-40 32t-46 37t-46.5 37t-41.5 33q-34 27 -2 53q17 14 38.5 31t44.5 35.5t45.5 36t40.5 32.5q20 17 33.5 13t13.5 -25q-1 -12 0 -33t1 -35q1 -15 7 -18.5t21 -3.5h32
h42q22 0 46.5 0.5t45.5 0.5q0 18 -0.5 38.5t-0.5 39.5v36v28q0 23 -4 36t-20 13q-11 -1 -31 0t-32 1q-20 0 -26 11t8 28q14 18 32 40.5t37 46t37 46.5t33 41q27 35 53 2q14 -17 31 -38t35 -43.5t36 -45.5t33 -42q17 -20 13 -33.5t-25 -12.5q-12 0 -31 -1t-33 -1t-18 -8.5
t-4 -25.5v-30v-39q0 -21 0.5 -43.5t0.5 -42.5h142q22 0 35.5 4.5t12.5 20.5q0 11 1 29.5t1 30.5q0 21 10.5 26.5t28.5 -8.5t40 -31.5t46 -36.5t47 -37t41 -33z" />
    <glyph glyph-name="uniE650" unicode="&#xe650;" 
d="M920 86.5q3 -26.5 7 -59t7.5 -66.5t7.5 -67.5t7 -61.5q6 -47 -41 -44q-25 2 -57 5.5t-65 7.5t-65.5 8t-59.5 7q-29 3 -37.5 16.5t9.5 31.5q11 10 27 27.5t27 28.5q11 12 7 22t-16 23q-28 27 -51.5 49t-51.5 51l-12 14q-6 7 -9 15.5t-1 18t13 20.5q6 6 10 10.5t8 8t8.5 8
t11.5 12.5q21 20 38 17t37 -23t41 -40.5t47 -46.5q19 -19 32.5 -26t26.5 6q10 10 23.5 22.5t23.5 22.5q17 17 30.5 13t16.5 -30.5zM44 428q-3 26 -7 59t-7.5 67t-7.5 67.5t-7 60.5t6.5 37t33.5 8q25 -2 56.5 -5.5t65 -7.5t66 -8.5t59.5 -7.5q30 -3 37.5 -16.5t-9.5 -30.5
q-10 -10 -24.5 -26t-25.5 -27q-12 -12 -8 -22t17 -23q13 -14 24.5 -24.5t22.5 -21t23 -23.5l25 -25q6 -6 11.5 -14t8.5 -17t-0.5 -19t-13.5 -20l-11 -11q-4 -4 -7.5 -8t-8.5 -8l-11 -12q-20 -20 -34.5 -15t-34.5 25t-38 37.5t-44 43.5q-19 18 -33 25t-27 -6
q-9 -10 -25 -24.5t-26 -24.5q-17 -17 -30 -13t-16 30zM906 728q26 3 36 -6.5t8 -35t-5.5 -57t-7.5 -64.5l-8 -66q-4 -33 -7 -60q-3 -29 -16.5 -37t-30.5 10q-10 10 -26 24.5t-28 25.5t-22 7.5t-23 -16.5q-27 -27 -47.5 -49t-48.5 -50q-6 -6 -14 -11.5t-17 -8t-19 0.5t-21 14
q-6 6 -10.5 10t-8.5 8t-8.5 8t-11.5 12q-20 20 -16 35t25 35l38 41l46 46q19 18 26 32t-7 26q-9 9 -23 24.5t-24 25.5q-18 17 -13.5 30t30.5 16t58.5 7.5t67 8t68 7.5t60.5 7zM350 172q6 -6 10.5 -10t8.5 -8l8 -9l12 -11q21 -20 18 -36.5t-24 -38.5q-19 -19 -40 -40.5
t-47 -47.5q-18 -18 -22.5 -29.5t8.5 -24.5q10 -9 22.5 -22.5t22.5 -23.5q17 -18 12.5 -31t-30.5 -16t-58 -7t-67 -8t-68.5 -8t-60.5 -7q-25 -2 -35.5 7.5t-8.5 33.5q2 26 5.5 57.5t7.5 64.5t8 65.5t7 60.5q3 30 16.5 37.5t30.5 -9.5q10 -10 27.5 -26t28.5 -28
q12 -12 20 -10.5t20 14.5q14 14 26 26.5t24 24.5t24.5 25t26.5 27q6 6 13 12t15.5 9t18 0.5t20.5 -13.5z" />
    <glyph glyph-name="uniE651" unicode="&#xe651;" 
d="M928 -17q28 -33 31 -57.5t-19 -48.5q-25 -28 -54.5 -26t-57.5 24l-164 158q-47 -30 -100.5 -47t-112.5 -17q-81 0 -152 31t-123.5 83.5t-83 123t-30.5 151.5q0 80 30.5 151t83 123.5t123.5 83t151.5 30.5t151.5 -30.5t123.5 -83t83.5 -123.5t31 -151q0 -61 -18 -116.5
t-50 -102.5l37 -38q25 -23 49 -47.5t43 -44.5zM450.5 106q53.5 0 100.5 20t82 55t55 82t20 100.5t-20 100.5t-55 82t-82 55t-100.5 20t-100 -20t-81.5 -55t-55 -82t-20 -100.5t20 -100.5t55 -82t81.5 -55t100 -20zM256 428h385v-128h-385v128z" />
    <glyph glyph-name="uniE652" unicode="&#xe652;" 
d="M927 -17q28 -33 31 -57.5t-19 -48.5q-25 -28 -54.5 -26t-57.5 24l-164 159q-47 -31 -100.5 -48t-112.5 -17q-81 0 -152 31t-123.5 83.5t-83 123t-30.5 151.5q0 80 30.5 151t83 123.5t123.5 83t151.5 30.5t151.5 -30.5t123.5 -83t83.5 -123.5t31 -151q0 -61 -18 -116.5
t-50 -101.5q13 -14 37.5 -38t48.5 -48.5t44 -44.5zM449.5 106q53.5 0 100.5 20t82 55t55 82t20 100.5t-20 100.5t-55 82t-82 55t-100.5 20t-100 -20t-81.5 -55t-55 -82t-20 -100.5t20 -100.5t55 -82t81.5 -55t100 -20zM512 428h128v-128h-128v-128h-129v128h-127v128h127
v128h129v-128z" />
    <glyph glyph-name="uniE653" unicode="&#xe653;" 
d="M833 749q26 0 49 -10.5t40.5 -28t28 -40.5t10.5 -49v-705q0 -27 -10.5 -50t-28 -40.5t-40.5 -27.5t-49 -10h-705q-27 0 -50 10t-40.5 27.5t-27.5 40.5t-10 50v705q0 26 10 49t27.5 40.5t40.5 28t50 10.5h705zM188 -112q20 0 37.5 7.5t30 20t20 30t7.5 37t-7.5 37t-20 30
t-30 20t-37.5 7.5t-37 -7.5t-30 -20t-20.5 -30t-7.5 -37t7.5 -37t20.5 -30t30 -20t37 -7.5zM446 -85h37q16 0 30.5 -0.5t31 -0.5t37.5 1q0 93 -36 175.5t-97.5 144t-144 97t-175.5 35.5q-1 -25 -1 -40v-29q0 -14 0.5 -29t0.5 -38q66 0 123.5 -24.5t100.5 -67.5t68 -100.5
t25 -123.5zM708 -83q36 0 48.5 -0.5t18.5 -1.5t16 -1t42 2q0 145 -55.5 272.5t-151 223t-223.5 150.5t-273 55q-1 -25 -1 -36v-17q0 -4 0.5 -5.5t0.5 -7t0.5 -18.5t0.5 -40q120 0 225 -45.5t183 -123.5t123.5 -183t45.5 -224z" />
    <glyph glyph-name="uniE654" unicode="&#xe654;" 
d="M573 632h-302v120h61q0 25 17.5 42.5t42.5 17.5h60q25 0 42.5 -17.5t17.5 -42.5h61v-120zM422 686q16 0 27 11t11 26q0 17 -11 27.5t-27 10.5t-26.5 -10.5t-10.5 -27.5q0 -15 10.5 -26t26.5 -11zM664 212q44 0 82.5 -17t67 -46t45.5 -67.5t17 -81.5q0 -44 -17 -82.5
t-45.5 -67.5t-67 -45.5t-82.5 -16.5t-82.5 16.5t-67.5 45.5t-46 67.5t-17 82.5q0 43 17 81.5t46 67.5t67.5 46t82.5 17zM795 18q6 7 11 16.5t-3 17.5q-2 2 -9 9.5t-9 8.5q-10 7 -18.5 2t-17.5 -13q-22 -22 -44 -43.5t-41 -40.5q-7 -7 -15 -8.5t-13 5.5q-3 3 -9 9.5t-13 14.5
t-13 15t-9 10q-6 5 -13 6.5t-15 -5.5q-1 -1 -5 -4.5t-7.5 -7.5t-7.5 -7.5t-5 -4.5q-14 -15 4 -36q6 -6 15.5 -16.5t20 -22t21 -22.5t18.5 -18t21.5 -6.5t19.5 7.5q14 13 31 30l36 36l37 37q18 18 32 31zM389 29q0 -7 -0.5 -13.5t-0.5 -14.5q0 -43 12.5 -82t35.5 -72h-281
q-19 0 -40.5 10.5t-40.5 28t-31.5 39.5t-12.5 46v596q0 21 10 42.5t25 40t35.5 30.5t42.5 12h68v-121h421v121h60q22 0 44 -10t39 -26t28 -39.5t11 -49.5v-341q-33 22 -71.5 35t-82.5 13h-6q17 6 28 21.5t11 34.5q0 25 -18 42.5t-43 17.5h-421q-25 0 -42.5 -17.5
t-17.5 -42.5t17.5 -42.5t42.5 -17.5h404q-58 -10 -105 -41.5t-78 -79.5h-221q-25 0 -42.5 -17t-17.5 -42.5t17.5 -43t42.5 -17.5h178z" />
    <glyph glyph-name="uniE655" unicode="&#xe655;" 
d="M642 365h-257v128h257v-128zM642 172h-257v128h257v-128zM642 -19h-257v128h257v-128zM706 685q26 0 49 -10t40.5 -27.5t28 -40.5t10.5 -50v-641q0 -27 -10.5 -50t-28 -40.5t-40.5 -27.5t-49 -10h-384q-27 0 -50 10t-40.5 27.5t-27.5 40.5t-10 50v641q0 27 10 50
t27.5 40.5t40.5 27.5t50 10h63q0 27 19 45.5t46 18.5h128q26 0 45 -18.5t19 -45.5h64zM706 557h-384v-641h384v641z" />
    <glyph glyph-name="uniE656" unicode="&#xe656;" 
d="M513 746q93 0 175.5 -35.5t144 -97t97.5 -144t36 -175.5q0 -94 -36 -176.5t-97.5 -144t-144 -97.5t-175.5 -36q-94 0 -176.5 36t-144 97.5t-97.5 144t-36 176.5q0 93 36 175.5t97.5 144t144 97t176.5 35.5zM513 -97q81 0 152 30.5t124.5 84t84 124.5t30.5 152t-30.5 152
t-84 124.5t-124.5 84t-152 30.5q-82 0 -153 -30.5t-124.5 -84t-84 -124.5t-30.5 -152t30.5 -152t84 -124.5t124.5 -84t153 -30.5zM513 622q67 0 125 -25.5t102 -69.5t69.5 -102t25.5 -125t-25.5 -125.5t-69.5 -102.5t-102 -69.5t-125 -25.5t-125.5 25.5t-102.5 69.5
t-69.5 102.5t-25.5 125.5t25.5 125t69.5 102t102.5 69.5t125.5 25.5z" />
    <glyph glyph-name="uniE657" unicode="&#xe657;" 
d="M953 145l2 -14v-8v-6v-6l-1 -8l-1 -12l-3 -11l-3 -10l-1 -6l-2 -4l-3 -4l-2 -4l-2 -3l-3 -3l-2 -3l-3 -2l-3 -1l-3 -2l-3 -1h-2h-2l-3 1l-4 2l-2 2l-3 1l-2 3l-2 2l-4 4l-4 6l-4 6l-4 7l-4 6l-6 10l-5 11h-1h-1l-2 -1l-1 -3l-3 -4l-3 -10l-6 -16l-8 -18l-5 -9l-6 -10
l-8 -12l-7 -10l-4 -5l-5 -5l-10 -10l1 -1l1 4l5 -3l22 -12l11 -5l9 -5l9 -7l8 -7l4 -3l3 -4l4 -3l2 -6l2 -4l1 -4l1 -4l1 -4l-1 -3v-3l-1 -3l-1 -3l-1 -2l-2 -4l-4 -6l-4 -4l-3 -3l-2 -3l-6 -4l-7 -4l-8 -3l-7 -4l-10 -3l-5 -2l-4 -1l-10 -2l-10 -3l-12 -2l-11 -1l-12 -1
l-12 -3h-13h-13h-13l-14 1l-13 3l-13 1l-15 1l-14 3l-14 3l-14 3l-14 3l-13 5l-15 4l-6 3l-7 2l-4 1l-4 1h-5h-6l-14 1l-6 1h-8l-6 -4l-7 -5l-11 -5l-11 -6l-7 -3l-7 -3l-16 -6l-9 -3l-9 -2l-12 -3h-7l-10 -1l-8 -1l-9 -1h-10h-11h-21l-23 1l-22 2l-12 2l-11 2l-11 1l-10 3
l-10 3l-10 3l-9 3l-9 3l-7 4l-7 5l-7 4l-3 2l-3 3l-2 2l-3 3l-1 4l-1 4l-3 6l-1 2v4v3v4v4l1 4v2v5l1 4l2 5l1 5l2 5l2 2l2 3l4 5l5 2l2 2l4 3l4 1l4 2l4 2l5 2l6 2l6 1l7 1h7l7 1l2 2l1 1v1l-1 1l-4 2l-10 3l-8 5l-7 7l-8 8l-8 9l-9 12l-4 6l-5 6l-4 7l-4 7l-4 8l-3 9l-4 8
l-4 9l-3 9l-2 12h-1h-1v1h-1l-1 -1h-1l-1 -2l-1 -3l-1 -2l-1 -3l-6 -9l-2 -4l-3 -5l-4 -5l-5 -5l-4 -5l-5 -6l-6 -4l-5 -4l-6 -4l-7 -2l-8 -2l-3 -1h-2l-2 1h-2l-2 2l-1 2l-4 6l-1 3l-1 5l-2 6l-1 6l-1 11l-1 7v7v16l1 16l2 8l1 9l1 10l3 9l3 10l3 10l4 11l3 9l5 10l5 11
l7 10l7 11l7 10l7 10l6 9l8 8l9 9l3 4l5 4l7 6l7 6l11 11l9 6l3 2l-1 5l-2 7l-1 4v4v6v6l2 6l1 6l2 7l4 7l3 8l6 8v5v6l1 6l2 8l3 8l1 4l2 5l3 3l2 3v6v6v7l2 10l1 12l4 14l4 14l3 7l3 10l3 8l4 8l4 9l4 10l5 9l6 9l3 5l4 5l7 10l7 10l8 10l8 10l9 10l11 10l11 11l8 6l9 7
l9 6l11 6l10 7l10 4l11 5l12 4l12 4l12 4l13 3l12 2l13 2l14 1l13 2l13 1h13h14h14l13 -2l15 -1l13 -2l13 -3l15 -3l13 -3l13 -3l14 -5l12 -5l12 -5l14 -7l11 -7l11 -7l10 -7l4 -3l6 -4l9 -7l7 -8l8 -8l7 -8l6 -8l8 -9l5 -10l5 -8l6 -9l4 -8l8 -18l3 -9l3 -9l3 -9l4 -8l2 -8
l2 -9l4 -15l3 -13l1 -14l2 -10l2 -16l1 -2l1 -4l6 -9l3 -5l3 -6l3 -6l3 -7l3 -9l3 -8l1 -8l1 -5l1 -5v-5l-1 -4v-5l-1 -7l-4 -10l-2 -5l-2 -6v-2l1 -1l3 -5l13 -18l9 -14l4 -8l6 -10l5 -11l6 -11l7 -13l7 -15l4 -9l4 -9l3 -9l3 -8l2 -9l2 -8l3 -16z" />
    <glyph glyph-name="uniE658" unicode="&#xe658;" 
d="M701 293h-383v191h383v-191zM878 742q34 0 59 -24t25 -60v-731q0 -35 -25 -59.5t-59 -24.5h-733q-34 0 -58.5 24.5t-24.5 59.5v731q0 36 24.5 60t58.5 24h733zM187 614h649v64h-649v-64zM254 549v-319h512v319h-512zM857 38h-176l62 111l-70 54q-5 -13 -9.5 -24
t-10 -23.5t-11.5 -23.5q-17 -30 -31.5 -58t-19.5 -36h-159q-4 8 -18.5 36t-31.5 58q-7 11 -12 23.5t-9.5 23.5t-9.5 24l-70 -54l62 -111h-176v-66h690v66z" />
    <glyph glyph-name="uniE659" unicode="&#xe659;" 
d="M964 465q23 0 39 -15t16 -36v-299q0 -21 -16 -35.5t-39 -14.5h-19q-23 0 -39 14.5t-16 35.5v299q0 21 16 36t39 15h19zM141 465q23 0 38 -15t15 -36v-299q0 -21 -15 -35.5t-38 -14.5h-19q-23 0 -39.5 14.5t-16.5 35.5v299q0 21 16.5 36t39.5 15h19zM701 700q18 -8 38 -22
t38 -33.5t32 -42t20 -48.5h-577q16 54 51 88.5t71 54.5l-52 82q-2 2 -0.5 7.5t10.5 11.5q8 7 15.5 6.5t9.5 -2.5l52 -83q29 13 60.5 20t64.5 7q69 0 129 -28l54 84q2 2 7.5 2t16.5 -6q11 -5 12.5 -9t-0.5 -6zM417.5 613q13.5 0 22.5 9t9 22.5t-9 22.5t-22.5 9t-22.5 -9
t-9 -22.5t9 -22.5t22.5 -9zM667 617q13 0 22.5 9t9.5 22.5t-9.5 22.5t-22.5 9t-22 -9t-9 -22.5t9 -22.5t22 -9zM829 490l1 -456q0 -23 -15 -38t-36 -15h-14v-142q0 -21 -15 -36t-36 -15h-29q-21 0 -35.5 15t-14.5 36v142h-187v-142q0 -21 -14.5 -36t-36.5 -15h-29
q-20 0 -35 15t-15 36v142h-11q-21 0 -36 15t-15 38v456h573z" />
    <glyph glyph-name="uniE65A" unicode="&#xe65a;" horiz-adv-x="1152" 
d="M935 495q-8 -21 -17 -40q-9 -18 -19 -37.5t-21 -35.5q-15 -21 -21 -33.5t-6.5 -22t3.5 -16.5t12 -16q7 -9 13.5 -17t14.5 -23t19.5 -44.5t29.5 -81.5q11 -33 20 -60.5t16 -50.5q35 20 57 40q29 26 55.5 26t42.5 -17t16.5 -44.5t-23.5 -56.5q-23 -30 -66 -61t-108.5 -56.5
t-154 -42.5t-203.5 -17q-148 0 -253 27.5t-174 61.5q-80 39 -132 89q-21 13 -28 30t-5 34t13.5 31t28 20.5t37.5 4t45 -18.5q9 28 19 62t19 66.5t16.5 62t12.5 47.5q-29 10 -47.5 35t-18.5 56q0 21 7.5 39t21 30.5t31 20.5t37.5 8h6q16 16 40.5 27.5t61.5 19.5t88 11t120 3
q48 0 87 -3.5t65 -7.5q32 -5 57 -12q19 60 68 107q22 19 51.5 38.5t70.5 35t93 24.5t119 9v-380h-131q-2 6 -4 11q-3 8 -6 23q-12 0 -25 15t-24 32q-14 21 -27 48zM1056.5 687q-14.5 0 -24.5 -10t-10 -24.5t10 -25t24.5 -10.5t25 10.5t10.5 25t-10.5 24.5t-25 10zM868 -32
q-14 32 -37 68.5t-57.5 67t-81 51t-107.5 20.5q-73 0 -125 -21t-89 -51.5t-59.5 -65t-33.5 -60.5q71 -29 153 -45.5t159 -16.5q65 0 138.5 15t139.5 38z" />
    <glyph glyph-name="uniE65B" unicode="&#xe65b;" 
d="M341 772q-37 -32 -61 -70t-39 -83t-21 -93.5t-6 -100.5q0 -85 33 -162t89.5 -134.5t134 -92t166.5 -34.5q52 0 101.5 5t95.5 18.5t85.5 36.5t71.5 60q-27 -68 -74 -124.5t-106.5 -97.5t-131 -63.5t-149.5 -22.5q-103 0 -193.5 38.5t-158 106.5t-106.5 158.5t-39 193.5
q0 78 22.5 149t63.5 131t97.5 106.5t124.5 74.5z" />
    <glyph glyph-name="uniE65C" unicode="&#xe65c;" 
d="M65 -85v641l256 63v-640zM384 -21v640l257 -63v-641zM705 556l256 63v-640l-256 -64v641z" />
    <glyph glyph-name="uniE65D" unicode="&#xe65d;" 
d="M241 472q6 -24 13.5 -51.5t17.5 -56t22 -56.5t27 -53v-404l-256 -63v640zM317 507q0 5 -0.5 9.5t-0.5 9.5q0 46 18 86t49 70.5t72 47.5t88 17t88 -17t71.5 -47.5t48.5 -70.5t18 -86v-12q0 -6 -1 -12q-6 -55 -24 -104.5t-45.5 -95.5t-63.5 -88.5t-77 -81.5q-7 -7 -15 -7
t-16 7q-42 39 -77.5 82t-63.5 90t-45.5 98t-23.5 105zM542.5 621q-20.5 0 -38 -7.5t-30 -20t-20.5 -30t-8 -37t8 -37t20.5 -30.5t30 -20t38 -7t38.5 7t31 20t20.5 30.5t7.5 37t-7.5 37t-20.5 30t-31 20t-38.5 7.5zM384 172q30 -33 58 -59.5t51 -46.5q26 -24 50 -42
q12 10 27 23q14 11 31 28.5t40 39.5v-327l-257 63v321zM961 493v-642l-256 -63v392q6 6 11.5 13t11.5 13q21 22 38 53.5t31 66.5t25 70.5t19 66.5z" />
    <glyph glyph-name="uniE65E" unicode="&#xe65e;" 
d="M128 812h889l-73 -844l-377 -115l-358 115zM840 557l21 128l-572 1l37 -384h372v-100l-125 -44l-130 46l-8 54l-102 -1l15 -135l219 -77l231 73l29 309h-405l-10 130h428z" />
    <glyph glyph-name="uniE65F" unicode="&#xe65f;" horiz-adv-x="1026" 
d="M1025 32h-128v-60q0 -26 -18.5 -44.5t-44.5 -18.5h-65q-27 0 -45 18.5t-18 44.5v60h-384v-60q0 -26 -19 -44.5t-46 -18.5h-64q-27 0 -45.5 18.5t-18.5 44.5v60h-129v201q0 58 36.5 89.5t91.5 35.5q4 18 13 47.5t18.5 64t20 68.5t20.5 61q27 78 115 78h398q40 0 65.5 -22
t35.5 -52l22 -63q11 -35 22.5 -70t22 -65t16.5 -47q55 -5 91.5 -36.5t36.5 -88.5v-201zM126 164q27 0 45.5 18.5t18.5 45t-18.5 45.5t-45.5 19t-45.5 -19t-18.5 -45.5t18.5 -45t45.5 -18.5zM794 357l-38 188h-488l-34 -188h560zM896 164q27 0 46.5 19.5t19.5 45.5
q0 28 -19.5 47t-46.5 19q-28 0 -47 -19t-19 -47q0 -26 19 -45.5t47 -19.5z" />
    <glyph glyph-name="uniE660" unicode="&#xe660;" 
d="M876 -116h-128l-26 60h-457l-27 -60h-127l130 189q-38 11 -63 43.5t-25 74.5v433q0 26 13.5 49t32.5 42.5t39.5 33.5t35.5 20.5t32.5 14.5t42.5 14t57.5 10t75.5 4q50 0 87.5 -4.5t65.5 -12t49.5 -17t39 -19t37.5 -22.5t35.5 -29.5t26 -37t10.5 -46.5v-433
q0 -42 -25 -74.5t-64 -43.5zM400 748q-13 0 -21.5 -9t-8.5 -23q0 -13 8.5 -22t21.5 -9h188q13 0 22 9t9 22q0 14 -9 23t-22 9h-188zM214 438h557v186h-557v-186zM246 117q18 0 31 13t13 31t-13 31t-31 13q-19 0 -31.5 -13t-12.5 -31t12.5 -31t31.5 -13zM693 5l-28 63h-344
l-28 -63h400zM696 161q0 -18 13 -31t31.5 -13t31.5 13t13 31t-13 31t-31.5 13t-31.5 -13t-13 -31z" />
    <glyph glyph-name="uniE661" unicode="&#xe661;" 
d="M882 132v-47q0 -23 -5 -40t-18 -27t-39 -10v-61q0 -26 -18 -44t-44 -18t-43.5 18t-17.5 44v61h-372v-61q0 -26 -17.5 -44t-43.5 -18t-44 18t-18 44v61q-25 0 -38 10t-18 27t-5.5 39t-0.5 48v556q0 26 10 48.5t27 39t39 26.5t48 10h494q26 0 48 -10t39 -26.5t27 -39
t10 -48.5v-556zM385 751q-12 0 -21 -9t-9 -22q0 -14 9 -23t21 -9h252q12 0 21 9t9 23q0 13 -9 22t-21 9h-252zM293 122q18 0 31.5 13.5t13.5 32t-13.5 32t-31.5 13.5q-20 0 -33 -13.5t-13 -32t13 -32t33 -13.5zM725 124q18 0 30.5 13t12.5 30.5t-12.5 30.5t-30.5 13
t-30.5 -13t-12.5 -30.5t12.5 -30.5t30.5 -13zM820 627h-618v-247h618v247z" />
    <glyph glyph-name="uniE662" unicode="&#xe662;" 
d="M80 434q0 28 9 39.5t41 11.5h131v-512h-56q-23 0 -45 0.5t-30 0.5q-28 -1 -39 9.5t-11 38.5v148q0 11 3.5 16.5t14.5 8.5q4 0 11.5 3t14.5 9.5t12 17t5 26.5q0 23 -12.5 36.5t-27.5 15.5q-11 2 -16 6.5t-5 16.5v108zM165 531v13v1v1v12q0 21 16 38t34 17h141v-82h-191z
M999 309q-8 -2 -11.5 -8.5t-3.5 -15t3.5 -16t12 -10.5t13 -12t5 -19.5t-2.5 -19.5t-9 -13q-21 -13 -21 -28t21 -31q4 -3 7.5 -11t3.5 -16.5t-4 -14.5t-15 -6h-55q-6 0 -6.5 1t1.5 3.5t5 5.5t5 7q5 15 0 25t-17 17q-8 5 -12 13.5t-3.5 17.5t4 16.5t9.5 10.5q8 3 12 11t4 17.5
t-3 17t-9 10.5q-8 4 -13 12.5t-5 18.5t4.5 20t13.5 16q6 4 10 11t4.5 15t-3 16t-12.5 13q-10 5 -15 15t-5 20t5 19t13 15q17 9 18.5 25t-2.5 29q-3 10 -12 18t-24 8h-491v81h576q7 0 12.5 -5t7 -12t-1 -15t-9.5 -13t-11.5 -13t-5 -17t2.5 -17.5t11 -12.5q12 -6 17.5 -17
t5.5 -21.5t-5.5 -20t-16.5 -13.5t-16 -11.5t-5.5 -17t4 -18t15 -14.5t15 -16.5t4 -20.5t-5 -19t-14.5 -10zM866 325q-12 -3 -18.5 -12t-7 -18t5 -18.5t16.5 -13.5q10 -4 15.5 -12t6 -17.5t-3.5 -17.5t-13 -12q-25 -13 -26 -30t19 -28q9 -4 15 -12.5t6.5 -18.5t-4 -17.5
t-13.5 -10.5q-12 -3 -18.5 -11t-7 -17.5t5 -18.5t17.5 -15q8 -5 12 -13.5t2.5 -16.5t-6 -15t-12.5 -7h-535v512h541q8 0 13 -6.5t5.5 -14.5t-4 -16.5t-13.5 -11.5t-14.5 -10t-6.5 -16t4 -17t17 -12q9 -4 15 -12.5t6.5 -17t-4 -16t-15.5 -10.5zM620 256q-6 0 -11.5 1t-2.5 6
q1 2 10 14.5t19.5 26t20 26t11.5 15.5q5 8 -7 20q-2 2 -8 6t-11 6q-8 3 -11.5 1t-8.5 -9q-3 -3 -11 -15l-17 -26q-9 -13 -17 -23.5t-9 -12.5q-2 -4 -7.5 -3t-7.5 5q-1 2 -9 11.5t-17.5 22t-18 23t-11.5 15.5q-10 17 -20 11q-7 -4 -12.5 -9t-10.5 -8q-11 -7 -3 -18
q17 -20 30 -38q12 -14 22 -27.5t12 -15.5q2 -4 -4 -4h-12q-5 0 -15 -0.5t-18 0.5q-8 0 -13.5 -4t-2.5 -10q1 -4 1 -13v-12q0 -5 3 -5.5t7 -0.5h59q12 0 12 -5v-20q0 -5 -2 -5h-5h-10h-20h-21h-12q-6 1 -8 -3t-3 -9t0 -9.5t1 -7.5q0 -14 13 -14h61q5 0 6 -1.5t1 -6.5
q2 -5 1 -18.5t-1 -17.5q0 -11 14 -11h33q8 0 8 5v7v34q0 10 9 10h9q7 0 16 0.5t17 0.5h13q15 0 15 11v22q0 9 -11 9h-59q-10 -2 -10 4q0 3 -0.5 8t-0.5 9t3.5 6t7.5 2h60q11 0 11 7v25q0 4 -4 8t-9 4h-34z" />
    <glyph glyph-name="uniE663" unicode="&#xe663;" horiz-adv-x="1054" 
d="M501 202q23 -12 39.5 -25t17.5 -28.5t1 -34.5v-33q-1 -12 -8 -24t-28 -25q-10 -6 -27.5 -15t-42.5 -16t-58.5 -12t-74 -5t-73 5t-56.5 11.5t-41.5 13.5t-28.5 14q-24 11 -37.5 23t-15.5 23q-2 9 -2.5 31t0.5 38t11.5 28.5t35.5 25.5q9 4 19 5q-4 2 -7.5 3.5t-7.5 3.5
q-24 11 -37.5 24t-16.5 22q-2 10 -2.5 32t0.5 37.5t12 28.5t36 25q5 3 12 4t15 2q-5 2 -9.5 4t-9.5 4q-24 11 -37.5 24t-16.5 23q-2 9 -2.5 31.5t0.5 37.5q1 16 12.5 28t35.5 25q17 11 68.5 23t126.5 12q68 0 118.5 -9t74 -20.5t40 -25t17.5 -27.5q1 -15 1 -36v-32
q-1 -12 -8 -23.5t-28 -25.5q-5 -3 -10.5 -6.5t-13.5 -6.5q1 -1 2 -1q23 -10 39.5 -24t17.5 -29t1 -34v-34q-1 -12 -8 -23.5t-28 -25.5q-4 -2 -8.5 -5t-10.5 -6h1zM106 489q-5 -16 4 -22t20 -11q5 -3 11.5 -5.5t12.5 -4.5t12 -3l-1 -37q0 -11 8 -14.5t17.5 -3.5t15.5 1t7 12
v32q7 -1 22.5 -2.5t28.5 -2.5q5 0 10 -0.5t9 -0.5h7l1 -40q0 -11 7 -13.5t15 -2.5q21 1 24 2.5t3 12.5v26v14q6 1 12 1h13q6 0 12 1q14 2 20 3q4 1 5 2v-36q0 -13 23 -13q13 1 17.5 4.5t4.5 8.5v42l13 3q5 2 12.5 4t15.5 6q26 9 23 25q-2 7 -6 9.5t-9.5 2.5t-12 -2t-12.5 -3
q-33 -6 -77.5 -10t-85.5 -4q-19 0 -40.5 2t-42 5t-38 6.5t-28.5 7.5q-4 2 -12 4t-16.5 2.5t-15 -1t-9.5 -7.5zM106 306q-7 -13 3 -21.5t21 -13.5q5 -3 11.5 -4.5t12.5 -3.5t12 -3l-1 -38q0 -11 8 -14.5t17.5 -3.5t17 1.5t8.5 11.5v32q7 -1 21 -2.5t27 -1.5q5 0 10 -0.5
t9 -0.5h7v-44q0 -10 5.5 -11.5t17.5 -1.5q25 -2 25 13v41q6 1 13 2q6 1 13 1t13 1q14 2 20 3q4 1 5 1v-36q0 -14 23 -12h1q5 1 13 3q8 4 8 12v40l13 3q5 2 12.5 3.5t15.5 4.5q25 10 23 26q-2 11 -15 10.5t-25 -2.5l-32 -6q-16 -3 -34 -5t-39.5 -3.5t-49.5 -1.5
q-60 0 -97.5 7.5t-59.5 14.5l-12 3q-8 2 -16 2.5t-14.5 -0.5t-10.5 -6zM493 86q24 8 22 26q-2 11 -15 10t-25 -3q-33 -5 -70 -10.5t-93 -3.5q-19 0 -41 2t-43 4t-38.5 5.5t-28.5 6.5q-4 1 -11.5 3t-15 3.5t-14 0.5t-9.5 -5q-8 -13 2 -21.5t21 -13.5q5 -3 12 -4.5t12 -3.5
q6 -2 12 -3v-39q0 -11 7.5 -14.5t17 -3.5t17 -0.5t7.5 11.5q0 2 0.5 8t0.5 12v15l21 -3q14 -2 27 -2q5 -1 11 -1h8h7l1 -44q1 -8 7.5 -10t14.5 -3q12 0 18.5 1.5t6.5 12.5v42h13q6 0 13 0.5t13 1.5q12 0 20 3q5 1 6 2v-36q0 -15 22 -13q13 0 18 4t5 9v43l12 3q5 2 12.5 3.5
t16.5 4.5zM994 283q24 -11 41 -24.5t18 -28.5t1 -35t-1 -32.5t-8 -24t-27 -24.5q-21 -15 -71.5 -31.5t-132.5 -16.5q-41 0 -72.5 4.5t-55.5 11t-41.5 14t-29.5 13.5q-23 11 -37.5 23.5t-16.5 23.5q-2 9 -2 31v37q1 17 12 29.5t35 23.5q12 7 28 7q-11 4 -19 9
q-23 11 -37.5 24t-16.5 22q-2 10 -2 33v37q1 15 12.5 26.5t34.5 26.5q19 10 70 22.5t126 12.5q67 0 118 -9.5t74.5 -20.5t40.5 -24.5t18 -28.5t1 -35t-1 -33q-1 -12 -8 -23.5t-27 -25.5q-5 -3 -11 -6l-14 -7zM603 387q-5 -11 4 -19t21 -13q5 -3 11.5 -4.5t11.5 -3.5
q6 -2 13 -3v-38q0 -11 7.5 -14.5t16.5 -3.5q10 0 18 1.5t8 11.5v18v14q7 -1 18.5 -3t26.5 -4q3 0 7.5 -0.5t9.5 -0.5q5 -1 10 -1v-38q0 -9 9 -12.5t17 -2.5q11 0 17.5 2t6.5 12v40q7 0 14 1q6 1 12.5 1.5t13.5 1.5q12 2 17 3q4 1 7 1v-36q0 -8 6 -10t17.5 -2t16.5 3.5t5 8.5
v43l12 3q6 2 13.5 3.5t15.5 4.5q25 10 23 26q-2 11 -15 11t-25 -3q-8 -3 -27 -5.5t-42.5 -5t-48.5 -4t-45 -1.5t-42 2t-42.5 5t-37.5 6.5t-29 6.5q-4 1 -11 3t-15 2.5t-15.5 -0.5t-10.5 -7zM986 168q25 8 23 26q-2 10 -15 9.5t-25 -2.5q-33 -6 -74 -12t-89 -6q-50 0 -90 8.5
t-63 16.5q-3 1 -10 2.5t-14.5 2.5t-14.5 -0.5t-10 -6.5q-7 -14 2.5 -21.5t21.5 -12.5q5 -3 11.5 -5t11.5 -4q6 -2 13 -3v-37q0 -11 7.5 -15t16.5 -4q10 0 16.5 0.5t7.5 12.5v32q7 -1 22.5 -2.5t28.5 -2.5h20v-44q1 -9 8 -10.5t15 -1.5q11 -1 21 1t10 13v25v13q6 1 13 2
q6 1 12.5 1t13.5 1q13 1 19 3q4 1 5 2v-36q0 -9 6 -11t18 -2q13 1 17 5t4 9v43q5 0 12 2q6 2 13.5 4t15.5 5z" />
    <glyph glyph-name="uniE664" unicode="&#xe664;" 
d="M957 655q9 -10 14 -26.5t-6 -34.5l-11 -16q-5 -8 -8 -13q-4 -6 -7 -11l-144 88q6 8 14 20.5t13 19.5q15 18 34.5 21t32.5 -1q14 -3 34.5 -16t33.5 -31zM548 235q3 5 13 22t25.5 43t34.5 56.5t38 62.5q46 74 101 166l144 -88q-55 -93 -100 -166q-20 -32 -38 -62.5
t-33 -55.5t-25.5 -40.5t-11.5 -18.5q-5 -8 -11 -16.5t-14 -13.5q-9 -6 -24.5 -15.5t-32.5 -18.5t-32 -18t-23 -13q-15 -7 -24.5 -2.5t-7.5 22.5q1 9 1.5 26.5t1 36t1.5 34.5t4 23q2 10 4.5 18t8.5 18zM784 208q41 -21 68 -53t27 -71q0 -41 -29 -77.5t-79.5 -63.5t-118.5 -43
t-148 -16q-82 0 -149.5 15.5t-116 42t-75.5 62.5t-27 77t26 78.5t75.5 65.5t120 44t159.5 15l-32 -66q-51 -2 -94.5 -14t-74.5 -31t-48 -43t-15 -48q2 -27 24.5 -48t58 -35t80.5 -21.5t92 -7.5q61 -1 111 9.5t84.5 28t53.5 39.5t19 45q0 19 -9 31t-22 20z" />
    <glyph glyph-name="uniE665" unicode="&#xe665;" 
d="M267 378q9 10 23 10t23 -10q11 -9 11 -22.5t-11 -23.5l-128 -127q-8 -10 -23.5 -9t-25.5 10l-127 126q-9 10 -9 23.5t9 22.5q10 10 23.5 10t23.5 -10l106 -104z" />
    <glyph glyph-name="uniE666" unicode="&#xe666;" 
d="M754 99q43 0 72 -29.5t29 -71.5v-6q0 -21 -5 -47t-19 -48.5t-39.5 -38t-64.5 -15.5t-64 16t-40.5 43t-22.5 64t-10 78.5t-3.5 87t-2.5 89.5q-3 67 -9.5 115.5t-21.5 80.5t-41 48t-65 16q-46 0 -80.5 -11.5t-56.5 -39.5t-33 -75.5t-11 -119t-3.5 -141.5t-17 -125t-39 -89
t-69.5 -34q-30 0 -51.5 7.5t-36 18.5t-24 26t-14.5 30q-12 36 -9 82q1 19 9 36t22 29.5t31.5 20t37.5 7.5q8 0 16 -1t15 -4q-1 33 -3.5 70t-5 71t-4.5 63t-2 47q0 65 12.5 126t46.5 107.5t93 74t152 27.5q34 0 64 -3q6 -17 18 -42.5t33 -61.5q25 -44 49 -70t48 -50
q7 -6 18 -15.5t25 -19.5t30 -19.5t31 -16.5q0 -10 0.5 -20.5t0.5 -21.5q0 -28 -2 -59.5t-5 -64.5l-6 -66q-3 -33 -7 -62q16 7 35 7zM879 445q4 -9 5.5 -22.5t-4 -24t-19.5 -14t-38 5.5q-13 5 -33.5 18.5t-47 33t-55 46t-54.5 55.5q-30 33 -55 66.5t-45 62.5q-22 34 -40 64
q-15 27 -15.5 40.5t8.5 16.5t23 -2t30 -14q7 -5 22.5 -17.5t37.5 -33.5q14 12 34.5 29t41 31t37.5 21.5t25 2.5q10 -7 33 -26t46.5 -40t41.5 -39.5t19 -24.5q1 -5 -6.5 -27.5t-18 -49.5t-20.5 -52.5t-14 -36.5q25 -27 42 -45.5t19 -23.5z" />
    <glyph glyph-name="uniE667" unicode="&#xe667;" 
d="M837 136q42 -59 96 -77q-24 -72 -75 -151q-79 -119 -156 -119q-28 0 -85 19q-52 20 -91 20t-86 -21q-49 -19 -81 -19q-92 0 -181 157q-89 154 -89 304q0 138 68 226q69 88 172 88q22 0 50 -5.5t57 -20.5q32 -18 52.5 -24.5t31.5 -6.5q14 0 41.5 6t54.5 22q30 17 51.5 25
t44.5 8q71 0 129 -39q30 -20 62 -60q-47 -41 -68 -72q-40 -57 -40 -125q0 -74 42 -135zM631 614q-36 -33 -66 -44q-10 -3 -26 -5.5t-36 -4.5q1 90 47 155.5t151 90.5q2 -10 4 -14v-12q0 -37 -18 -83q-18 -45 -56 -83z" />
    <glyph glyph-name="uniE668" unicode="&#xe668;" 
d="M946 497q22 -17 38 -35t16 -35q0 -20 -14.5 -32t-36.5 -28q-32 -24 -68.5 -51t-69 -51t-57.5 -42t-36 -24q-33 -21 -51.5 -15t-23.5 22v119h-4q-78 0 -136 -17t-102 -51.5t-77 -85t-59 -116.5q-3 2 -6 11q-2 8 -4 23.5t-2 42.5q0 86 26.5 160.5t75 130.5t117.5 87.5
t154 30.5q6 0 9.5 -0.5t8.5 -0.5l-1 107q2 29 23.5 42t53.5 -11q11 -8 38 -29.5t60.5 -48t68.5 -54.5t59 -49zM776 113q33 0 47 -19t14 -55v-133q0 -52 -29.5 -85.5t-78.5 -32.5l-612 4q-23 0 -44.5 9.5t-38.5 26t-27.5 40t-10.5 53.5v592q0 50 30 83.5t84 32.5l208 -2
q11 0 23.5 -2.5t22 -9.5t16 -19t6.5 -30t-7 -29.5t-19 -19t-25.5 -11.5t-26.5 -4l-98 1q-40 0 -62.5 -25t-22.5 -61v-405q0 -22 7.5 -39t20.5 -29t28.5 -18.5t32.5 -6.5l417 -4q35 -1 56 23.5t21 62.5v44q0 31 19 49.5t49 18.5z" />
    <glyph glyph-name="uniE669" unicode="&#xe669;" horiz-adv-x="1033" 
d="M551 93v-20q0 -11 -2 -20h2l200 -151h-531l188 147q-4 20 -4 44l-20 310l-221 -120l-179 60l389 229l-8 126q0 24 9 44.5t24.5 36t36 24.5t44 9t44 -9t35.5 -24.5t24.5 -36t9.5 -44.5l-8 -124l402 -230l-203 -63l-211 123z" />
    <glyph glyph-name="uniE66A" unicode="&#xe66a;" horiz-adv-x="1299" 
d="M1007 166q21 0 40 -8.5t33 -22t22 -32t8 -40t-8 -40.5t-22 -33t-33 -22t-40.5 -8t-40 8t-32 22t-22 33t-8.5 40q0 43 30 73t73 30zM293 166q43 0 72.5 -30t29.5 -73q0 -21 -8 -40t-22 -33t-32.5 -22t-40 -8t-40.5 8t-32.5 22t-22 33t-8.5 40.5t8.5 40t22 32t32.5 22
t41 8.5zM1168 617q28 0 51.5 -10t41 -28t27.5 -41.5t10 -50.5v-260q0 -26 -10 -50t-27.5 -41.5t-41 -28t-51.5 -10.5h-2q-6 28 -21 51.5t-35.5 41t-47.5 27t-55 9.5q-30 0 -56 -9.5t-47 -27t-35.5 -41t-20.5 -51.5h-396q-7 28 -21 51.5t-35 41t-47.5 27t-55.5 9.5
q-30 0 -56 -9.5t-47 -27t-36 -41t-21 -51.5h-3q-27 0 -51 10.5t-41.5 28t-27.5 41.5t-10 50v260q0 27 10 50.5t27.5 41.5t41.5 28t51 10h1038z" />
    <glyph glyph-name="uniE66B" unicode="&#xe66b;" 
d="M778 609q46 -32 81 -73t60.5 -88.5t38.5 -100.5t13 -107q0 -94 -36 -176t-97 -143t-143 -97t-176 -36q-93 0 -175 36t-143.5 97t-97 143t-35.5 176q0 53 12.5 104.5t36 98t57.5 87t77 72.5q22 16 47.5 12t42 -25t12.5 -47.5t-26 -42.5q-63 -46 -97 -113.5t-34 -145.5
q0 -67 25.5 -126t69 -102.5t102.5 -69.5t126 -26t126 26t102.5 69.5t69.5 102.5t26 126q0 79 -36.5 149t-101.5 115q-23 15 -27.5 41.5t11.5 48.5q15 21 41 25.5t48 -10.5zM519 237q-26 0 -44.5 18.5t-18.5 45.5v383q0 26 18.5 45t44.5 19q27 0 46 -19t19 -45v-383
q0 -27 -19 -45.5t-46 -18.5z" />
    <glyph glyph-name="uniE66C" unicode="&#xe66c;" 
d="M190 59q17 16 40.5 16t40.5 -16q17 -17 17 -40.5t-17 -40.5l-40 -40q-17 -17 -40.5 -17t-40.5 17q-16 17 -16 40.5t16 40.5zM150 581q-16 17 -16 40.5t16 40.5q17 17 40.5 17t40.5 -17l40 -40q17 -17 17 -40.5t-17 -39.5q-17 -17 -40.5 -17t-40.5 17zM835 542
q-17 -17 -40.5 -17t-40.5 17q-17 16 -17 39.5t17 40.5l40 40q16 17 40 17t40 -17q17 -17 17 -40.5t-17 -40.5zM512.5 641q-23.5 0 -40.5 17t-17 40v57q0 24 17 40.5t40.5 16.5t40 -16.5t16.5 -40.5v-57q0 -23 -16.5 -40t-40 -17zM171 300.5q0 -23.5 -17 -40.5t-40 -17h-57
q-23 0 -40 17t-17 40.5t17 40t40 16.5h57q23 0 40 -16.5t17 -40zM874 19q17 -17 17 -40.5t-17 -40.5q-16 -17 -40 -17t-40 17l-40 40q-17 17 -17 40.5t17 40.5q17 16 40.5 16t40.5 -16zM512 583q59 0 110.5 -22.5t90 -60.5t61 -89.5t22.5 -110.5t-22.5 -110.5t-61 -89.5
t-90 -60.5t-110.5 -22.5t-110.5 22.5t-89.5 60.5t-60.5 89.5t-22.5 110.5t22.5 110.5t60.5 89.5t89.5 60.5t110.5 22.5zM512.5 126q35.5 0 67.5 14t55.5 37.5t37.5 55.5t14 67.5t-14 67t-37.5 55.5t-55.5 37.5t-67.5 13.5t-67.5 -13.5t-55.5 -37.5t-37.5 -55.5t-14 -67
t14 -67.5t37.5 -55.5t55.5 -37.5t67.5 -14zM512.5 -41q23.5 0 40 -17t16.5 -40v-57q0 -24 -16.5 -40.5t-40 -16.5t-40.5 16.5t-17 40.5v57q0 23 17 40t40.5 17zM967 357q24 0 40.5 -16.5t16.5 -40t-16.5 -40.5t-40.5 -17h-56q-23 0 -40.5 17t-17.5 40.5t17.5 40t40.5 16.5
h56z" />
    <glyph glyph-name="uniE66D" unicode="&#xe66d;" horiz-adv-x="1204" 
d="M883 525q-18 -17 -43 -17t-42 17q-18 18 -18 43t18 43l42 42q18 18 43 18t42 -18q18 -17 18 -42t-18 -43zM250 201q-4 16 -6 33.5t-2 35.5q0 62 23.5 116.5t64.5 95t95 64t117 23.5q72 0 132 -30.5t102 -82.5q-32 -7 -62 -14.5t-58 -23.5q-24 20 -52 28t-62 8
q-39 0 -72 -14.5t-58 -39.5t-39.5 -58.5t-14.5 -71.5q0 -28 7 -49q-31 0 -59 -5.5t-56 -14.5zM542 631q-25 0 -43 18t-18 43v59q0 25 18 43t43 18t42.5 -18t17.5 -43v-59q0 -25 -17.5 -43t-42.5 -18zM159 568q-18 18 -18 43t18 42q17 18 42 18t42 -18l43 -42q18 -18 18 -43
t-18 -43q-17 -17 -42.5 -17t-42.5 17zM854 390q69 0 132.5 -27t111.5 -74t76.5 -109.5t28.5 -131.5q0 -57 -12.5 -100.5t-37.5 -88.5q-13 -22 -28 -35.5t-32 -21.5t-34.5 -11t-34.5 -3h-783q-22 0 -43 14t-38.5 35t-28 47t-10.5 50q0 104 57 160t150 56q22 0 39.5 -3
t32.5 -8t30 -14t32 -20q11 59 42.5 111t82 91t118 61t149.5 22zM1024 -94q22 7 42.5 42.5t20.5 99.5q0 48 -17.5 89.5t-48.5 71t-72 46.5t-89.5 17t-84.5 -7.5t-63 -19t-45 -26t-31 -27.5q-12 -13 -24.5 -31.5t-22.5 -38.5t-14.5 -40.5t-1.5 -35.5q3 -28 -11 -47t-37 -27.5
t-48 -4t-42 23.5t-41.5 29.5t-61.5 10.5q-30 0 -48.5 -4t-29.5 -13t-14.5 -23t-3.5 -33q0 -15 6.5 -25t17.5 -16t24.5 -8.5t27.5 -2.5h712zM180 270q0 -25 -17.5 -42.5t-42.5 -17.5h-60q-25 0 -42.5 17.5t-17.5 42.5t17.5 42.5t42.5 17.5h60q25 0 42.5 -17.5t17.5 -42.5z
" />
    <glyph glyph-name="uniE66E" unicode="&#xe66e;" horiz-adv-x="1154" 
d="M780 684q74 0 141.5 -29t119.5 -79t82 -116t30 -141q0 -60 -19.5 -122.5t-46.5 -110.5q-13 -24 -37 -43t-51.5 -33.5t-54 -23t-45.5 -8.5h-715q-40 0 -73 13.5t-57.5 37t-38.5 57t-14 73.5q0 55 13.5 104t40.5 86t68.5 58.5t97.5 21.5q25 0 43 -3t34 -8.5t32 -15
t35 -21.5q10 62 43.5 117.5t87.5 97t125.5 65t158.5 23.5zM861 104q33 0 63 14.5t53.5 42t37.5 67.5t14 91.5t-18.5 95.5t-51 75.5t-77 49.5t-96 18t-90 -8t-66.5 -20.5t-47.5 -27.5t-32.5 -28q-14 -14 -27.5 -34t-23.5 -41.5t-15.5 -43t-2.5 -38.5q4 -29 -11 -49.5
t-39 -29.5t-51 -4t-44 25q-20 21 -46 32t-65 11q-31 0 -50.5 -12.5t-31 -30.5t-15.5 -40t-4 -42q0 -16 7 -29.5t19 -23t26 -15t29 -5.5h656z" />
    <glyph glyph-name="uniE66F" unicode="&#xe66f;" horiz-adv-x="1154" 
d="M780 684q74 0 141.5 -29t119.5 -79t82 -116t30 -141q0 -60 -19.5 -122.5t-46.5 -110.5q-13 -24 -37 -43t-51.5 -33.5t-54 -23t-45.5 -8.5h-715q-40 0 -73 13.5t-57.5 37t-38.5 57t-14 73.5q0 55 13.5 104t40.5 86t68.5 58.5t97.5 21.5q25 0 43 -3t34 -8.5t32 -15
t35 -21.5q10 62 43.5 117.5t87.5 97t125.5 65t158.5 23.5zM786 558q-86 0 -137 -21t-80 -46h388q-32 32 -75.5 49.5t-95.5 17.5zM515 428q-19 -33 -29 -65h539q-6 32 -20 65h-490zM225 302q-41 0 -62.5 -20t-30.5 -47h246q-24 5 -43 24q-19 21 -45 32t-65 11zM861 104
q36 0 68.5 17t55.5 50h-861q1 -15 8.5 -27.5t19 -21t25 -13.5t28.5 -5h656zM1017 235q10 31 11 64h-546q-2 -26 -20.5 -42t-42.5 -22h598z" />
    <glyph glyph-name="uniE670" unicode="&#xe670;" horiz-adv-x="1154" 
d="M780 812q74 0 141.5 -29t119.5 -79t82 -116t30 -140q0 -60 -19.5 -122.5t-46.5 -111.5q-13 -24 -37 -43t-51.5 -33t-54 -22.5t-45.5 -8.5h-715q-40 0 -73 13t-57.5 37t-38.5 57.5t-14 73.5q0 55 13.5 103.5t40.5 85.5t68.5 58.5t97.5 21.5q25 0 43 -3t34 -8.5t32 -15
t35 -21.5q10 63 44 118.5t88 96.5t125.5 64.5t157.5 23.5zM861 232q33 0 63 14.5t53.5 42t37.5 67.5t14 91.5t-18.5 95.5t-51 75.5t-77 49.5t-96 18t-90 -8t-66.5 -20.5t-47.5 -27.5t-32.5 -28q-14 -14 -27.5 -34t-23.5 -41.5t-15 -43t-3 -38.5q4 -29 -11 -49.5t-39 -29
t-51 -3.5t-44 25q-20 21 -46 31.5t-65 10.5q-31 0 -50.5 -12.5t-31 -30.5t-15.5 -40t-4 -42q0 -16 7 -29.5t19 -23t26 -15t29 -5.5h656zM192.5 43q26.5 0 45.5 -19t19 -46v-63q0 -27 -19 -46t-45.5 -19t-45.5 19t-19 46v63q0 27 19 46t45.5 19zM513 43q27 0 46 -19t19 -46
v-63q0 -27 -19 -46t-46 -19t-45.5 19t-18.5 46v63q0 27 18.5 46t45.5 19zM833.5 43q26.5 0 45.5 -19t19 -46v-63q0 -27 -19 -46t-45.5 -19t-45.5 19t-19 46v63q0 27 19 46t45.5 19z" />
    <glyph glyph-name="uniE671" unicode="&#xe671;" 
d="M674 812q59 0 113 -23t95 -63t65 -92.5t24 -110.5q0 -49 -15.5 -98.5t-36.5 -88.5q-11 -19 -30 -34.5t-41 -26.5t-43.5 -17.5t-35.5 -6.5h-569q-32 0 -58.5 10t-46 29.5t-30.5 46t-11 58.5q0 44 10.5 82.5t32 68t54.5 46.5t78 17q20 0 34 -2.5t27 -7t26 -12t27 -16.5
q8 50 35 94t70 76.5t100 51.5t126 19zM739 351q26 0 50 11t42.5 33t29.5 54t11 73t-14.5 76t-40.5 60t-61.5 39.5t-76.5 14.5t-71.5 -6.5t-53 -16.5t-38 -22t-25.5 -22q-12 -12 -22.5 -27.5t-18 -33t-11.5 -34.5t-3 -30q3 -24 -9 -40t-31 -22.5t-40.5 -3t-35.5 19.5
q-15 17 -36 25.5t-52 8.5q-25 0 -40.5 -10t-24.5 -24.5t-12 -32t-3 -33.5q0 -13 5.5 -23.5t15 -18t21 -11.5t22.5 -4h523zM513 98h100l-100 -310v210h-104l3 200h101v-100z" />
    <glyph glyph-name="uniE672" unicode="&#xe672;" horiz-adv-x="1152" 
d="M444 556q0 28 10.5 51.5t28.5 41.5t41.5 28t50.5 10t50.5 -10t41.5 -28t28.5 -41.5t10.5 -51.5q0 -27 -10.5 -51t-28.5 -41.5t-41.5 -27.5t-50.5 -10h-12q-5 0 -10 2h-488v128h379zM708 169q26 0 49 -10t40.5 -27t27.5 -40t10 -50t-10 -50t-27.5 -40t-40.5 -27t-49.5 -10
t-49.5 10t-40 27t-27 40t-10 50v1h-581v128h706v-2h2zM992 557q33 0 62 -13t50.5 -35t34.5 -51t13 -62q0 -34 -13 -63t-34.5 -50.5t-50.5 -34.5t-62 -13h-2h-990v128h835q-4 16 -4 33q0 33 13 62t34.5 51t50.5 35t63 13z" />
    <glyph glyph-name="uniE673" unicode="&#xe673;" horiz-adv-x="1152" 
d="M258 263q-1 9 -1.5 18t-0.5 18q0 54 20 101t54.5 81.5t81 54.5t99.5 20q41 0 78 -12t68 -33.5t55 -51.5t38 -64q-27 -3 -52 -8.5t-48 -11.5q-21 37 -56.5 59.5t-82.5 22.5q-32 0 -60.5 -12.5t-49.5 -33.5t-33.5 -50t-12.5 -62v-8q0 -4 1 -9q-15 -2 -34.5 -6.5t-48.5 -9.5
zM154 565q-19 19 -19 45.5t19 44.5q19 20 45.5 20t44.5 -20l46 -45q19 -18 19 -44.5t-19 -46.5q-19 -18 -45.5 -18t-45.5 18zM511.5 620q-26.5 0 -45 19t-18.5 45v65q0 26 18.5 44.5t45 18.5t45.5 -18.5t19 -44.5v-65q0 -26 -19 -45t-45.5 -19zM822 517q-18 -18 -44.5 -18
t-46.5 18q-18 20 -18 46.5t18 44.5l46 45q19 20 45.5 20t44.5 -20q20 -18 20 -44.5t-20 -45.5zM848 364q73 0 123 -18t83.5 -47t53 -67t29.5 -77t12.5 -75.5t2.5 -65.5q0 -43 -19 -84t-55 -72.5t-87 -50.5t-115 -19h-514q-64 0 -109 17t-73 45t-40 65t-12 78t16 77t43 63.5
t63 43.5t78 16q60 0 107.5 -30.5t71.5 -80.5q0 50 18.5 100.5t59 91t105.5 65.5t158 25zM191 299.5q0 -26.5 -18.5 -45t-44.5 -18.5h-65q-26 0 -44.5 18.5t-18.5 45t18.5 45.5t44.5 19h65q26 0 44.5 -19t18.5 -45.5z" />
    <glyph glyph-name="uniE674" unicode="&#xe674;" horiz-adv-x="1026" 
d="M105 476q30 -34 71.5 -46t90.5 -12q39 0 75 15t63 41.5t43 62t16 77.5q0 50 -11.5 93t-44.5 72q63 -26 103 -83.5t40 -131.5q0 -22 -3 -42q-81 -26 -132.5 -72.5t-67.5 -109.5q-25 26 -72 40t-107 9q-42 36 -64 87zM722 491q72 0 122.5 -17.5t84.5 -47t53 -67t28.5 -76.5
t12 -76t2.5 -66q0 -43 -19 -84t-55 -72t-87 -50.5t-115 -19.5h-515q-64 0 -108.5 17t-72.5 45t-40.5 65t-12.5 78t16 77t43 64t63.5 43.5t78.5 15.5q59 0 106.5 -30.5t72.5 -79.5q0 50 18.5 100t59 90.5t105.5 65.5t159 25z" />
    <glyph glyph-name="uniE675" unicode="&#xe675;" horiz-adv-x="1026" 
d="M722 619q58 0 103.5 -14.5t79 -38.5t56.5 -56t37.5 -65.5t20.5 -68t6 -63.5q0 -61 -23 -110.5t-69 -85t-115 -55t-161 -19.5h-464q-88 0 -140 54.5t-52 150.5q0 41 13 84t41 78t72 57.5t106 22.5q43 0 79.5 -13t64 -34.5t46 -48.5t28.5 -56q0 59 18 111t53 89.5t85 59
t115 21.5z" />
    <glyph glyph-name="uniE676" unicode="&#xe676;" horiz-adv-x="1025" 
d="M513 529q47 0 89 -18t73 -49t49 -73t18 -89q0 -48 -18 -90t-49 -73t-73 -49t-89 -18q-48 0 -90 18t-73 49t-49 73t-18 90q0 47 18 89t49 73t73 49t90 18zM968 357q23 0 40 -16.5t17 -40.5t-17 -40.5t-40 -16.5h-108q-7 -44 -24 -82.5t-42 -72.5l81 -70q16 -16 16 -40
t-16 -40q-17 -17 -40.5 -17t-39.5 17l-71 80q-68 -52 -155 -65v-109q0 -23 -16 -39.5t-40 -16.5t-40.5 16.5t-16.5 39.5v109q-87 13 -155 65l-70 -80q-17 -17 -40.5 -17t-40.5 17q-16 16 -16 40t16 40l81 70q-51 68 -66 155h-108q-23 0 -40 16.5t-17 40.5t17 40.5t40 16.5
h108q15 87 66 155l-81 70q-16 16 -16 40t16 40q17 17 40.5 17t40.5 -17l70 -81q34 25 72.5 42t82.5 24v109q0 23 16.5 39.5t40.5 16.5t40 -16.5t16 -39.5v-109q44 -7 82.5 -24t72.5 -42l71 81q16 17 39.5 17t40.5 -17q16 -16 16 -40t-16 -40l-81 -70q25 -34 42 -72.5
t24 -82.5h108zM513 16q58 0 110 22.5t90.5 61t61 90t22.5 110.5q0 58 -22.5 110t-61 90.5t-90.5 61t-110 22.5q-59 0 -111 -22.5t-90 -61t-60.5 -90.5t-22.5 -110q0 -59 22.5 -110.5t60.5 -90t90 -61t111 -22.5z" />
    <glyph glyph-name="uniE677" unicode="&#xe677;" horiz-adv-x="1043" 
d="M947 52q58 -95 95 -232h-91q-9 60 -28.5 117.5t-48.5 114.5h73zM819 -98q5 -119 -127 -114h-282q-151 -5 -146 132v132h90v-123q-4 -91 92 -81h227q81 0 77 54v36h69v-36zM600 52q40 -57 60 -136h-87q-9 68 -50 136h77zM924 139q-76 -14 -148.5 -21t-142.5 -7h-615v60
h460v90h-379v333h379v82h-456v59h456v77h95v-77h460v-59h-460v-82h383v-219q5 -119 -128 -114h-255v-90h60q79 0 147 5.5t125 16.5l-27 55h73q28 -48 47 -93.5t31 -88.5h-87q-5 41 -18 73zM573 453h287v87h-287v-87zM573 316h228q64 -4 59 59v27h-287v-86zM478 402h-282v-86
h282v86zM478 540h-282v-87h282v87zM13 -180q59 86 82 232h73q-14 -147 -69 -232h-86z" />
    <glyph glyph-name="uniE678" unicode="&#xe678;" 
d="M647 208q1 5 1.5 9.5t0.5 9.5q0 41 -39 41q-21 0 -42 -19q-18 -18 -18 -42q0 -32 31 -32q12 0 26 5q1 -16 -2 -33q-1 -14 -6 -29.5t-14 -29.5q-11 -17 -30.5 -22.5t-36.5 -5.5q-22 0 -35.5 5.5t-30.5 22.5q-32 31 -32 85q0 87 65 153q63 66 151 66q62 0 100 -33
q39 -33 39 -84q0 -11 -2 -23t-5 -25l-15 -59l-3 -10q-2 -8 -3 -14t-1 -11q0 -22 22 -22q32 0 61 48q13 22 19.5 45.5t7.5 52.5q1 15 -1 33q-2 14 -5.5 32.5t-11.5 38.5t-18.5 34t-19.5 25q-10 12 -21 21q-36 29 -80.5 44.5t-93.5 15.5q-59 0 -111 -22t-90.5 -60.5t-60.5 -90
t-22 -110t22 -110.5t60.5 -90.5t90.5 -61t111 -22.5q53 0 101 19.5t85 52.5q6 6 14 10q7 4 16 7t22 3q12 0 21 -3t14 -7q6 -4 9 -10q-48 -66 -121.5 -104t-160.5 -38q-74 0 -138.5 28t-112.5 76t-76 112.5t-28 138t28 137.5t76 112t112.5 76t138.5 28q59 0 113.5 -18.5
t98.5 -53.5q16 -11 31 -26q13 -14 27 -34.5t25 -47.5q11 -29 16 -53t7 -42q2 -22 1 -40q-2 -48 -12.5 -81t-38.5 -63q-29 -32 -65 -54t-81 -22q-48 0 -76 18t-28 47q0 8 1.5 16t3.5 19zM675 643q0 -15 -10.5 -25.5t-25.5 -10.5q-14 0 -24 10.5t-10 25.5v133q0 15 10 25.5
t24 10.5q15 0 25.5 -10.5t10.5 -25.5v-133zM179 218q15 0 25.5 -10t10.5 -25t-10.5 -25.5t-25.5 -10.5h-133q-15 0 -25.5 10.5t-10.5 25.5t10.5 25t25.5 10h133zM326 546q11 -11 11 -25.5t-10.5 -25t-25 -10.5t-25.5 10l-94 95q-11 11 -11 25.5t11 25.5q11 10 25 10t25 -10z
" />
    <glyph glyph-name="uniE679" unicode="&#xe679;" horiz-adv-x="1250" 
d="M1087 196q12 19 22.5 45t20 64t14 78.5t1 91t-16.5 100.5q-30 125 -151 193q-127 72 -271 28l-3 -1q-58 -21 -102 -53.5t-72 -77.5t-39 -99q-9 -45 -6 -88t17 -80.5t36 -59.5q8 -11 19 -23t30 -28.5t46.5 -29.5t57.5 -19q88 -18 178 44q18 16 22.5 40t-7.5 45
q-10 14 -25 21t-31.5 5.5t-31.5 -10.5q-22 -16 -43 -22.5t-39 -2.5q-21 4 -40.5 17.5t-27.5 25.5l-9 11q-2 2 -3.5 4t-4 3.5t-3.5 2.5q-9 10 -15.5 44t0.5 82q23 94 131 133q31 10 61.5 11t60.5 -6t55 -23q35 -20 58.5 -50t33.5 -68q13 -48 14 -97t-6.5 -86t-16.5 -62
t-18 -40q-43 -71 -117.5 -125t-156 -83.5t-174.5 -48.5t-171 -24.5t-149 -5.5t-104.5 2t-41.5 3q-26 3 -46 -12t-22 -41q-4 -25 12.5 -44.5t42.5 -21.5q6 -1 23.5 -2.5t55 -3t77.5 -1.5q58 0 114.5 3t130.5 12.5t141.5 25t141 42t135 61.5t117.5 86.5t95 114.5zM338 426
q16 0 30 6t25 18q6 8 11 16t7.5 18t2.5 20q0 30 -21 55q-11 11 -25 16.5t-30 5.5t-30 -5.5t-27 -16.5q-5 -6 -9 -12.5t-6.5 -13.5t-4 -14t-1.5 -15q0 -31 21 -54q28 -24 57 -24zM1141 45q-14 0 -26.5 -7.5t-20 -20.5t-7.5 -28v-16q0 -22 16 -38t38 -16t38.5 16t16.5 38v16
q0 11 -4.5 21.5t-12 18t-17.5 12t-21 4.5zM963 -56q-19 0 -32 -13t-13 -31v-8q0 -19 13 -32t32 -13q18 0 30.5 13t12.5 32v8q0 18 -12.5 31t-30.5 13zM400 323q0 9 -3 16t-8 12.5t-12.5 8.5t-15.5 3q-16 0 -27 -11.5t-11 -28.5v-7q0 -7 3 -14t8 -12t12 -8.5t15 -3.5
q16 0 27.5 11.5t11.5 26.5v7zM264 131q26 0 43.5 18t17.5 45v11q0 17 -8 31t-22 22t-31 8q-25 0 -42 -18t-17 -43v-11q0 -26 17 -44.5t42 -18.5zM450 90q12 0 23.5 4.5t19.5 12t13 19t5 23.5v12q0 17 -8.5 31t-22 22t-30.5 8q-13 0 -24 -5t-19 -13t-12.5 -19.5t-4.5 -23.5
v-12q0 -26 17 -42.5t43 -16.5zM726 523v-3q0 -28 18.5 -47.5t47.5 -19.5q28 0 47.5 19.5t19.5 47.5v3q0 27 -19.5 46t-47.5 19q-29 0 -47.5 -19t-18.5 -46zM1206 209q-12 0 -22 -6.5t-16 -16.5t-6 -22v-8q0 -18 13 -31.5t31 -13.5t31 13.5t13 31.5v8q0 18 -13 31.5t-31 13.5
zM640 174v5q0 11 -5.5 20t-14.5 14t-20 5q-10 0 -18.5 -5t-13.5 -14t-5 -20v-5q0 -17 10.5 -29t26.5 -12q11 0 20 5.5t14.5 15t5.5 20.5zM956 471v12q0 9 -4.5 16.5t-12 12t-17.5 4.5q-8 0 -15.5 -4.5t-11.5 -12t-4 -16.5v-12q0 -14 9 -23.5t22 -9.5q26 0 33 23q1 5 1 10z
" />
    <glyph glyph-name="uniE67A" unicode="&#xe67a;" horiz-adv-x="1154" 
d="M756 812q-122 0 -223 -66.5t-150 -179.5q-1 -6 -4.5 -15t-7.5 -20t-6 -20q-69 43 -139 43q-93 0 -166 -75q-10 -11 -16 -18.5t-19.5 -35t-18.5 -55.5q-9 -49 -2.5 -91.5t28.5 -77.5t59 -60q19 -13 52 -25t58 -12h7h162h10q24 0 41 16.5t17 38.5q0 24 -17 40.5t-41 16.5
h-10v1l-169 -1q-4 0 -14 3.5t-19.5 7.5t-13.5 7q-55 34 -38 115q3 14 9 26.5t10 18.5l5 6h1q40 40 85 40q53 0 112 -47l1 -1l26 -18q24 -18 53 -8q26 11 36 40q15 71 34 115q23 54 64 94.5t93.5 62.5t110.5 22q77 0 142.5 -36t103.5 -99t38 -137q0 -102 -60 -166
q-6 -6 -14.5 -12.5t-15 -10.5t-15.5 -8t-14 -5.5t-12 -4t-8 -3.5h-140h-9q-24 0 -40.5 -16.5t-16.5 -40.5q0 -14 8 -27t21 -20.5t28 -7.5h12l142 1h9q96 24 147 80q91 96 91 241q0 78 -31.5 149t-84.5 122.5t-127 82t-154 30.5zM301 67q-24 0 -42.5 -18.5t-18.5 -43.5v-64
q0 -25 18.5 -43t42.5 -18q7 0 13 1t11.5 3.5t10.5 6t9 7.5t7.5 9t5.5 10.5t3.5 11.5t1.5 12v64q0 6 -1.5 12t-3.5 11.5t-5.5 10.5t-7.5 9.5t-9 8t-10.5 5.5t-11.5 3.5t-13 1.5zM815 67q-10 0 -19 -3t-16.5 -9t-13 -14t-8.5 -17t-3 -19v-64q0 -25 17.5 -43t42.5 -18t43.5 18
t18.5 43v64q0 10 -3.5 19t-9 17t-13 14t-17 9t-19.5 3zM591 212h-53q-5 0 -10 -1.5t-9.5 -4t-8.5 -6t-7 -8.5t-5 -10t-3 -11.5t-1 -12.5v-237q0 -23 12.5 -39t31.5 -16h53q19 0 32 16t13 39v237q0 15 -6 27.5t-16 19.5t-23 7z" />
    <glyph glyph-name="uniE67B" unicode="&#xe67b;" horiz-adv-x="1084" 
d="M1047 528q9 24 -2.5 46t-34.5 29q-24 9 -45.5 -2t-29.5 -36q-24 -71 -69 -131t-98.5 -102.5t-121.5 -76.5t-130 -55t-132.5 -36.5t-120.5 -22.5t-102 -11t-69.5 -4.5t-30.5 -0.5h-1q-25 0 -42.5 -17t-17.5 -42t17 -42.5t43 -17.5h7q210 0 414 57q223 62 367.5 180
t198.5 285zM460 502q22 0 40 10t28 27.5t10 39.5v21q0 33 -22.5 55.5t-55.5 22.5q-30 0 -52.5 -23t-22.5 -55v-21q0 -32 22.5 -54.5t52.5 -22.5zM869 133q-20 0 -37.5 -10.5t-28 -28.5t-10.5 -38v-24q0 -31 22.5 -54t53.5 -23q32 0 55 23t23 54v24q0 31 -23 54t-55 23z
M1024 279q-25 0 -43 -18.5t-18 -43.5v-10q0 -10 3.5 -19t9 -16.5t13 -13t16.5 -8.5t19 -3q25 0 42 17.5t17 42.5v10q0 8 -2 16t-6 14.5t-9 12.5t-11.5 10t-14.5 6.5t-16 2.5zM651 27q-19 0 -34 -14.5t-15 -34.5v-12q0 -10 4.5 -19.5t11 -16t15.5 -10t18 -3.5q14 0 25.5 6.5
t18 17.5t6.5 25v12q0 20 -14.5 34.5t-35.5 14.5zM608 724q16 0 27 11t11 27v11q0 11 -5 20t-13.5 14t-19.5 5q-15 0 -26.5 -11t-11.5 -28v-11q0 -16 11.5 -27t26.5 -11zM290 531q10 0 19 4.5t14.5 13t5.5 18.5v13q0 15 -12 27t-27 12q-16 0 -27.5 -12t-11.5 -27v-13
q0 -15 11.5 -25.5t27.5 -10.5zM272 330q24 0 41 18t17 42v14q0 24 -17 42t-41.5 18t-42 -18t-17.5 -42v-14q0 -36 32 -53q14 -7 28 -7zM613 468v-14q0 -9 5.5 -18t14 -14.5t18.5 -5.5q8 0 15.5 3.5t12.5 8.5t8 12t3 14v14q0 15 -11 26.5t-28 11.5q-7 0 -14 -3t-12.5 -8.5
t-8.5 -12.5t-3 -14zM432 279q24 0 42 16.5t18 41.5v13q0 16 -8.5 29.5t-22 22t-29.5 8.5t-30.5 -8.5t-22.5 -22t-8 -29.5v-13q0 -16 8 -29.5t22 -21t31 -7.5zM768 538q21 0 38 10t27.5 28t10.5 40v22q0 32 -22.5 54t-53.5 22q-33 0 -55 -22t-22 -54v-22q0 -34 22 -56t55 -22
z" />
    <glyph glyph-name="uniE67C" unicode="&#xe67c;" horiz-adv-x="1239" 
d="M718 -87l-40 23l37 26q10 6 12.5 19t-5.5 26q-7 9 -19.5 11t-22.5 -5l-25 -18v32q0 4 -1 8t-3 7t-5 6t-6.5 5t-7.5 3.5t-8 1.5q-13 0 -22.5 -9.5t-9.5 -21.5v-37l-28 20q-12 6 -24 3.5t-19 -12.5q-7 -12 -4.5 -25t14.5 -19l34 -22l-42 -28q-10 -7 -12.5 -19t4.5 -23
q5 -6 11.5 -9.5t14.5 -3.5q10 0 17 5l34 23v-37q0 -6 2.5 -11.5t7 -10t10 -7t12.5 -2.5q8 0 15.5 4.5t11.5 11.5t4 15v36l29 -20q9 -4 16 -4q9 0 15.5 3.5t10.5 11.5q5 7 6 15t-3 15t-11 13zM962 -56l-24 18l23 13q9 7 10.5 17.5t-4.5 19.5q-2 3 -5 5.5t-7 4t-8 2t-8 -1
t-7 -3.5l-14 -8v16q0 5 -2 9.5t-5.5 8t-8.5 5.5t-10 2q-10 0 -17.5 -7.5t-7.5 -17.5v-19l-16 10q-8 4 -19 2t-18 -10q-5 -9 -2.5 -20t11.5 -17l21 -12l-25 -19q-6 -4 -9.5 -10t-3 -13t4.5 -13q6 -10 23 -10q7 0 12 3l21 15v-23q0 -9 7.5 -17t17.5 -8q7 0 13 4t9.5 9.5
t3.5 11.5v22l16 -13q2 -1 3.5 -1.5t3.5 -0.5t3.5 -0.5t3.5 -0.5q4 0 8 1t8 4t6 6q11 22 -8 36zM414 -56l-25 18l23 13q9 7 11 17.5t-5 19.5q-5 8 -15.5 10.5t-20.5 -3.5l-13 -8v16q0 10 -7.5 17.5t-17.5 7.5q-5 0 -10.5 -2t-9 -5.5t-5.5 -8t-2 -9.5v-19l-15 10q-9 4 -19.5 2
t-15.5 -10q-6 -10 -4 -20.5t11 -16.5l21 -12l-25 -19q-5 -3 -7.5 -7t-3.5 -9t-0.5 -10t3.5 -10q8 -10 21 -10q10 0 14 3l20 15v-23q0 -5 2 -9t5.5 -7.5t9 -6t10.5 -2.5q10 0 17.5 8t7.5 17v22l16 -13q4 -1 7.5 -2t7.5 -1q14 0 21 11q14 22 -7 36zM985 601q-17 0 -36 -3
q-29 91 -118 152.5t-195 61.5h-2q-63 0 -117.5 -16t-92 -41t-67.5 -59.5t-47.5 -68t-28.5 -70.5q-23 2 -35 2q-65 0 -121.5 -31t-91.5 -86l-1 -1q-14 -28 -22.5 -62t-9 -76t21 -85t64.5 -76q42 -32 116 -32h1h815h10q24 4 50 15t55 32t52 48t38 67.5t15 87.5q0 65 -34 120.5
t-92 88t-127 32.5zM1011 224h-808h-1q-34 0 -48 9q-44 32 -40 92q1 14 5 27.5t8 22.5l4 9q13 20 29.5 34t33.5 20t29 8t23 2q15 0 26 -3.5t16 -7.5q8 -6 18 -8.5t20 -2.5t20 3q5 3 9.5 6.5t8.5 8t7.5 10t5.5 11t2 10.5q1 9 3 20.5t9 34.5t18 44t30.5 44.5t45 40.5t64.5 28.5
t85 11.5h2q84 0 147.5 -54.5t66.5 -115.5q0 -15 6 -26.5t17 -18.5q11 -8 24.5 -10t26.5 1q15 6 30.5 9.5t30.5 3.5q31 0 58 -11.5t44.5 -30t27.5 -41t10 -45.5q0 -24 -6.5 -45t-18 -35t-24 -24.5t-26.5 -17t-23 -10t-16 -4.5z" />
    <glyph glyph-name="uniE67D" unicode="&#xe67d;" horiz-adv-x="1239" 
d="M719 -93l-39 26l37 24q10 7 12.5 20t-4.5 24t-19.5 13.5t-23.5 -4.5l-26 -18v31q0 13 -8.5 22.5t-21.5 9.5q-12 0 -21 -9.5t-9 -22.5v-35l-30 19q-10 7 -23 3.5t-20 -15.5q-4 -6 -4 -14.5t3.5 -16t10.5 -12.5l34 -20l-39 -28q-11 -7 -13.5 -19.5t4.5 -23.5
q4 -6 10.5 -9.5t15.5 -3.5q2 0 5 0.5t6 1.5l5 3l35 24v-37q0 -13 8.5 -22t21.5 -9t21.5 9t8.5 22v35l31 -19q2 -2 5 -3t5.5 -1.5t5.5 -0.5q18 0 26 14q5 7 5.5 15t-4 15.5t-11.5 11.5zM985 601q-17 0 -36 -3q-30 92 -118.5 153t-195.5 61h-1q-63 0 -117 -16t-91.5 -41
t-67.5 -59.5t-47.5 -68t-28.5 -70.5q-19 3 -36 3q-65 0 -121 -31t-92 -87l-1 -1q-14 -27 -22.5 -61t-9 -76t21 -85t64.5 -76q41 -32 116 -32h3h812q7 0 11 1q24 4 50 15t55 31.5t52 47t38 67t15 87.5q0 65 -34 120.5t-92 88t-127 32.5zM1011 224h-806h-2h-1q-36 0 -47 9
q-44 34 -40 91q1 11 3.5 22t5 18.5l4.5 13.5l3 6q41 63 115 63q33 0 42 -10q26 -19 58 -6q14 6 23 19t10 28v1q1 9 3 18t9 32.5t17.5 43.5t30.5 44.5t45 41.5t64 28.5t86 11.5h1q85 0 148 -54.5t66 -115.5q0 -29 23 -45q24 -16 52 -8q16 6 31.5 9.5t29.5 3.5q61 0 100.5 -40
t39.5 -89q0 -15 -2.5 -28.5t-7 -24.5t-10.5 -20.5t-13.5 -17t-15 -14t-16 -11t-15.5 -8t-14 -6.5t-11.5 -4t-8.5 -2z" />
    <glyph glyph-name="uniE67E" unicode="&#xe67e;" horiz-adv-x="1151" 
d="M242 38q-25 0 -43.5 -18t-18.5 -44v-61q0 -8 1.5 -15t4.5 -13t7.5 -11.5t10 -9.5t11.5 -7t13 -4.5t14 -1.5q25 0 42.5 18t17.5 44v61q0 26 -17.5 44t-42.5 18zM474 38q-26 0 -44 -18t-18 -44v-61q0 -9 2 -17t6 -15t9.5 -12.5t12.5 -9.5t15.5 -6t16.5 -2q25 0 42.5 18
t17.5 44v61q0 39 -33 56q-13 6 -27 6zM698 38q-26 0 -44 -18t-18 -44v-61q0 -26 18 -44t44 -18t44.5 18t18.5 44v61q0 13 -5 24.5t-14 20t-20 13t-24 4.5zM755 812q-80 0 -153.5 -30.5t-130 -86.5t-87.5 -129q-3 -6 -6 -14.5t-7 -20t-6 -18.5q-76 40 -140 40q-92 0 -163 -74
q-7 -6 -16.5 -17t-22 -37t-17.5 -54q-14 -73 8 -133t77 -97q10 -7 28 -15t41.5 -14.5t41.5 -6.5h701q8 0 12 3q7 1 19.5 4.5t34.5 11.5t47 24.5t45 38.5q43 47 66.5 109.5t23.5 130.5q0 105 -53 193.5t-144 140t-199 51.5zM978 262q-26 -29 -79 -42h-697q-4 0 -11 1.5
t-14.5 3.5t-14 4.5t-9.5 4.5q-5 4 -7 5t-8.5 7.5t-9.5 11.5t-7.5 15t-6 20.5t-1.5 25t3 30.5q3 14 9 26.5t10 18.5l4 5l2 1q39 42 84 42q49 0 112 -48l1 -1l2 -2l25 -18q26 -16 52 -5q29 8 34 37q18 72 36 117q22 53 63.5 93.5t94.5 62t110 21.5q77 0 142 -36t103 -99
t38 -137q0 -101 -60 -165zM910 38q-26 0 -44.5 -18t-18.5 -44v-61q0 -13 5 -24.5t13.5 -19.5t20 -13t24.5 -5q25 0 43 18t18 44v61q0 26 -18 44t-43 18z" />
    <glyph glyph-name="uniE67F" unicode="&#xe67f;" 
d="M891 -148h-691q-57 0 -97 40.5t-40 96.5v622q0 56 40 96.5t97 40.5h691q56 0 94.5 -40t38.5 -97v-622q0 -57 -38.5 -97t-94.5 -40zM319 620q-3 -11 -15.5 -54t-17.5 -58.5t-17 -51.5t-21.5 -56.5t-24.5 -48.5t-32 -52q3 -10 3 -26t-2 -27l-1 -11q1 0 2 1t4.5 4t7 5.5
t8.5 7t9.5 8.5t9.5 9.5t9 10t8 9.5t6 9v-320h64v448q23 47 74 191zM682 609l-43 -39q10 -8 23.5 -19t23 -19t20.5 -17.5t20 -18t17 -16.5q6 7 10.5 22t8 30t6.5 19q-10 10 -31.5 24t-38.5 24zM832 136q-8 2 -31 15.5t-33 13.5v-121h-71q-31 0 -45 19.5t-13 43.5v257h193v63
h-256q1 22 1 52t-0.5 72.5t-0.5 68.5h-65q0 -4 0.5 -49.5t0.5 -87t-1 -56.5h-128v-63h128q0 -8 -1.5 -23t-10 -56.5t-21 -79.5t-39 -83.5t-60.5 -77.5q4 -4 4 -65q3 1 8.5 4t21.5 14t30.5 24.5t32.5 37t32 51.5q21 42 38 105t23 106l7 43v-257q0 -51 19.5 -89.5t60.5 -38.5
h112q41 0 52.5 15.5t11.5 49.5q0 7 -0.5 24t-0.5 28.5t1 39.5z" />
    <glyph glyph-name="uniE680" unicode="&#xe680;" 
d="M891 748h-691q-37 0 -68.5 -18.5t-50 -50t-18.5 -68.5v-622q0 -56 40 -96.5t97 -40.5h691q56 0 94.5 40t38.5 97v622q0 57 -38.5 97t-94.5 40zM511 555h321v-63h-321v63zM366 620l55 -44q-20 -26 -36 -45.5t-32 -36.5t-33 -34t-35.5 -34t-43.5 -39q0 1 -0.5 2t-1.5 4
t-3 6.5t-4.5 8.5t-6 9.5t-8 10t-10.5 11.5q79 63 159 181zM383 337v-358h-64v284q-13 -15 -44 -41.5t-60 -48.5q-3 5 -8.5 17.5t-15.5 33.5q112 103 184 209l49 -46zM896 299h-128v-192q0 -17 -2.5 -33.5t-10 -33.5t-19 -30t-30.5 -21t-43 -8h-9q-6 0 -13.5 1t-16 2.5
t-16 2.5t-14 2t-9.5 2h-4q-4 24 -8 38q-2 6 -2 11v9q4 -1 14.5 -3t20 -3.5t25.5 -2.5t32 -1q25 -3 34 15t7 53v192h-256v65h448v-65z" />
    </font>
</defs>
</svg>
